Вы используете незарегистрированную версию компонента "Вкладки"!

Поиск

(Free Jazz, Contemporary Jazz) Lester Bowie's Brass Fantasy - The Fire This Time - 1992, FLAC (tracks+.cue), lossless

(Free Jazz, Contemporary Jazz) Lester Bowie's Brass Fantasy - The Fire This Time - 1992, FLAC (tracks+.cue), lossless
Треклист:
Lester Bowie's Brass Fantasy / The Fire This Time
Жанр: Free Jazz, Contemporary Jazz
Страна-производитель диска: Germany
Год издания: 1992
Издатель (лейбл): In + Out Records
Номер по каталогу: IOR 7019-2
Аудиокодек: FLAC (*.flac)
Тип рипа: tracks+.cue
Битрейт аудио: lossless
Продолжительность: 1:14:35
Источник (релизер): Max Monteiro
Наличие сканов в содержимом раздачи: да
Треклист:
1. Night Time (Is the Right Time) (Traditional) 2:57
2. For Louis (Phillip Wilson) 7:13
3. Journey Towards Freedom (E. J. Allen) 10:55
4. Remember the Time (Michael Jackson) 8:32
5. Strange Fruit (Alan Lewis) 9:15
6. Siesta for the Fiesta (Jimmie Lunceford) 4:14
7. Night Life (Bruce Purse) 10:29
8. Black or White (Michael Jackson) 7:21
9. Three for the Festival (Rahsan Roland Kirk) 6:06
10. The Great Pretender (Buck Ram) 7:33
 
Лог создания рипа
Exact Audio Copy V1.0 beta 3 from 29. August 2011
EAC extraction logfile from 17. February 2013, 22:46
Lester Bowie's Brass Fantasy / The Fire This Time
Used drive : SlimtypeeNAU508 5 Adapter: 1 ID: 0
Read mode : Secure
Utilize accurate stream : Yes
Defeat audio cache : Yes
Make use of C2 pointers : No
Read offset correction : 6
Overread into Lead-In and Lead-Out : No
Fill up missing offset samples with silence : Yes
Delete leading and trailing silent blocks : No
Null samples used in CRC calculations : Yes
Used interface : Native Win32 interface for Win NT & 2000
Gap handling : Appended to previous track
Used output format : User Defined Encoder
Selected bitrate : 768 kBit/s
Quality : High
Add ID3 tag : No
Command line compressor : C:\Program Files (x86)\Exact Audio Copy\Flac\flac.exe
Additional command line options : -8 -V -T "ARTIST=%artist%" -T "TITLE=%title%" -T "ALBUM=%albumtitle%" -T "DATE=%year%" -T "TRACKNUMBER=%tracknr%" -T "GENRE=%genre%" -T "PERFORMER=%albuminterpret%" -T "COMPOSER=%composer%" %haslyrics%--tag-from-file=LYRICS="%lyricsfile%"%haslyrics% -T "ALBUMARTIST=%albumartist%" -T "DISCNUMBER=%cdnumber%" -T "TOTALDISCS=%totalcds%" -T "TOTALTRACKS=%numtracks%" -T "COMMENT=%comment%" %source% -o %dest%
TOC of the extracted CD
Track | Start | Length | Start sector | End sector
---------------------------------------------------------
1 | 0:00.33 | 2:56.47 | 33 | 13279
2 | 2:57.05 | 7:12.68 | 13280 | 45747
3 | 10:09.73 | 10:54.72 | 45748 | 94869
4 | 21:04.70 | 8:32.25 | 94870 | 133294
5 | 29:37.20 | 9:14.70 | 133295 | 174914
6 | 38:52.15 | 4:13.48 | 174915 | 193937
7 | 43:05.63 | 10:29.10 | 193938 | 241122
8 | 53:34.73 | 7:20.60 | 241123 | 274182
9 | 60:55.58 | 6:05.70 | 274183 | 301627
10 | 67:01.53 | 7:33.30 | 301628 | 335632
Track 1
Filename C:\EAC rips\01 - Night Time (Is the Right Time).wav
Pre-gap length 0:00:02.33
Peak level 89.1 %
Extraction speed 0.9 X
Track quality 99.9 %
Test CRC C2FD5E0F
Copy CRC C2FD5E0F
Accurately ripped (confidence 2) [773576B2] (AR v2)
Copy OK
Track 2
Filename C:\EAC rips\02 - For Louis.wav
Peak level 95.8 %
Extraction speed 1.3 X
Track quality 99.9 %
Test CRC 1BEA437D
Copy CRC 1BEA437D
Accurately ripped (confidence 2) [B291170F] (AR v2)
Copy OK
Track 3
Filename C:\EAC rips\03 - Journey Towards Freedom.wav
Peak level 94.8 %
Extraction speed 1.7 X
Track quality 100.0 %
Test CRC 6DDA1FEE
Copy CRC 6DDA1FEE
Accurately ripped (confidence 2) [98B84110] (AR v2)
Copy OK
Track 4
Filename C:\EAC rips\04 - Remember the Time.wav
Peak level 100.0 %
Extraction speed 1.9 X
Track quality 100.0 %
Test CRC 1140C8FB
Copy CRC 1140C8FB
Accurately ripped (confidence 2) [66154E53] (AR v2)
Copy OK
Track 5
Filename C:\EAC rips\05 - Strange Fruit.wav
Peak level 95.0 %
Extraction speed 2.1 X
Track quality 100.0 %
Test CRC 5B1E8265
Copy CRC 5B1E8265
Accurately ripped (confidence 2) [8039FF5B] (AR v2)
Copy OK
Track 6
Filename C:\EAC rips\06 - Siesta for the Fiesta.wav
Peak level 90.9 %
Extraction speed 1.8 X
Track quality 99.9 %
Test CRC E2FA32FC
Copy CRC E2FA32FC
Accurately ripped (confidence 2) [352C7169] (AR v2)
Copy OK
Track 7
Filename C:\EAC rips\07 - Night Life.wav
Peak level 97.7 %
Extraction speed 2.2 X
Track quality 99.9 %
Test CRC 1281F461
Copy CRC 1281F461
Accurately ripped (confidence 2) [AE3A176C] (AR v2)
Copy OK
Track 8
Filename C:\EAC rips\08 - Black or White.wav
Peak level 97.7 %
Extraction speed 2.4 X
Track quality 100.0 %
Test CRC 93B41F78
Copy CRC 93B41F78
Accurately ripped (confidence 9) [306BE2F2] (AR v1)
Copy OK
Track 9
Filename C:\EAC rips\09 - Three for the Festival.wav
Pre-gap length 0:00:02.15
Peak level 96.2 %
Extraction speed 2.5 X
Track quality 100.0 %
Test CRC 588594CA
Copy CRC 588594CA
Accurately ripped (confidence 2) [D5662BD0] (AR v2)
Copy OK
Track 10
Filename C:\EAC rips\10 - The Great Pretender.wav
Peak level 100.0 %
Extraction speed 2.6 X
Track quality 100.0 %
Test CRC F66E0D20
Copy CRC F66E0D20
Accurately ripped (confidence 7) [58D93EC9] (AR v1)
Copy OK
All tracks accurately ripped
No errors occurred
End of status report
---- CUETools DB Plugin V2.1.4
[CTDB TOCID: BnPLUCz4cMOVRoRhV3m.58qrz8w-] disk not present in database
Submit result: BnPLUCz4cMOVRoRhV3m.58qrz8w- has been uploaded
==== Log checksum AB3C5ECD48919CDE8248D1030113F4FE614E0EE866A639CB5FAD5A185E845C7A ====
 
Содержание индексной карты (.CUE)
REM GENRE Jazz
REM DATE 1992
REM DISCID 8E117B0A
REM COMMENT "ExactAudioCopy v1.0b3"
PERFORMER "Lester Bowie's Brass Fantasy"
TITLE "The Fire This Time"
FILE "01 - Night Time (Is the Right Time).wav" WAVE
TRACK 01 AUDIO
TITLE "Night Time (Is the Right Time)"
PERFORMER "Lester Bowie's Brass Fantasy"
PREGAP 00:00:33
INDEX 01 00:00:00
FILE "02 - For Louis.wav" WAVE
TRACK 02 AUDIO
TITLE "For Louis"
PERFORMER "Lester Bowie's Brass Fantasy"
INDEX 01 00:00:00
FILE "03 - Journey Towards Freedom.wav" WAVE
TRACK 03 AUDIO
TITLE "Journey Towards Freedom"
PERFORMER "Lester Bowie's Brass Fantasy"
INDEX 01 00:00:00
FILE "04 - Remember the Time.wav" WAVE
TRACK 04 AUDIO
TITLE "Remember the Time"
PERFORMER "Lester Bowie's Brass Fantasy"
INDEX 01 00:00:00
FILE "05 - Strange Fruit.wav" WAVE
TRACK 05 AUDIO
TITLE "Strange Fruit"
PERFORMER "Lester Bowie's Brass Fantasy"
INDEX 01 00:00:00
FILE "06 - Siesta for the Fiesta.wav" WAVE
TRACK 06 AUDIO
TITLE "Siesta for the Fiesta"
PERFORMER "Lester Bowie's Brass Fantasy"
INDEX 01 00:00:00
FILE "07 - Night Life.wav" WAVE
TRACK 07 AUDIO
TITLE "Night Life"
PERFORMER "Lester Bowie's Brass Fantasy"
INDEX 01 00:00:00
FILE "08 - Black or White.wav" WAVE
TRACK 08 AUDIO
TITLE "Black or White"
PERFORMER "Lester Bowie's Brass Fantasy"
INDEX 01 00:00:00
TRACK 09 AUDIO
TITLE "Three for the Festival"
PERFORMER "Lester Bowie's Brass Fantasy"
INDEX 00 07:18:45
FILE "09 - Three for the Festival.wav" WAVE
INDEX 01 00:00:00
FILE "10 - The Great Pretender.wav" WAVE
TRACK 10 AUDIO
TITLE "The Great Pretender"
PERFORMER "Lester Bowie's Brass Fantasy"
INDEX 01 00:00:00
Доп. информация:
Recorded live at the Moonwalker Club, Aarburg Switzerland, May 1st, 1992.
 
Состав
Lester Bowie – Trumpet
E. J. Allen – Trumpet
Gerald Brazel – Trumpet
Tony Barrero – Trumpet
Vincent Chancey – French Horn
Frank Lacy – Trombone
Louis Bonilla – Trombone
Bob Stewart – Tuba
Vinnie Johnson – Drums
Famoudou Don Moye – Percussion
Any questions -> support@pro-jazz.com. По всем вопросам пишите -> support@pro-jazz.com
09:10
260
Нет комментариев. Ваш будет первым!