Вы используете незарегистрированную версию компонента "Вкладки"!

Поиск

(Free Jazz) Art Ensemble of Chicago - Certain Blacks - 2004 (1970), FLAC (tracks+.cue), lossless

(Free Jazz) Art Ensemble of Chicago - Certain Blacks - 2004 (1970), FLAC (tracks+.cue), lossless
Треклист:
Art Ensemble of Chicago / Certain Blacks
Жанр: Free Jazz
Страна-производитель диска: France
Год издания: 2004 (1970)
Издатель (лейбл): America Records
Номер по каталогу: 067 848-2
Аудиокодек: FLAC (*.flac)
Тип рипа: tracks+.cue
Битрейт аудио: lossless
Продолжительность: 42:26
Источник (релизер): Max Monteiro
Наличие сканов в содержимом раздачи: нет
Треклист:
1. Certain Blacks « Do What They Wanna » (Chicago Beau) 23:41
2. One for Jarman (Chicago Beau) 7:07
3. Bye Bye Baby (Sonny Boy Williamson) 11:38
 
Лог создания рипа
Exact Audio Copy V1.0 beta 3 from 29. August 2011
EAC extraction logfile from 15. February 2013, 23:16
Art Ensemble of Chicago / Certain Blacks
Used drive : SlimtypeeNAU508 5 Adapter: 1 ID: 0
Read mode : Secure
Utilize accurate stream : Yes
Defeat audio cache : Yes
Make use of C2 pointers : No
Read offset correction : 6
Overread into Lead-In and Lead-Out : No
Fill up missing offset samples with silence : Yes
Delete leading and trailing silent blocks : No
Null samples used in CRC calculations : Yes
Used interface : Native Win32 interface for Win NT & 2000
Gap handling : Appended to previous track
Used output format : User Defined Encoder
Selected bitrate : 768 kBit/s
Quality : High
Add ID3 tag : No
Command line compressor : C:\Program Files (x86)\Exact Audio Copy\Flac\flac.exe
Additional command line options : -8 -V -T "ARTIST=%artist%" -T "TITLE=%title%" -T "ALBUM=%albumtitle%" -T "DATE=%year%" -T "TRACKNUMBER=%tracknr%" -T "GENRE=%genre%" -T "PERFORMER=%albuminterpret%" -T "COMPOSER=%composer%" %haslyrics%--tag-from-file=LYRICS="%lyricsfile%"%haslyrics% -T "ALBUMARTIST=%albumartist%" -T "DISCNUMBER=%cdnumber%" -T "TOTALDISCS=%totalcds%" -T "TOTALTRACKS=%numtracks%" -T "COMMENT=%comment%" %source% -o %dest%
TOC of the extracted CD
Track | Start | Length | Start sector | End sector
---------------------------------------------------------
1 | 0:00.00 | 23:41.20 | 0 | 106594
2 | 23:41.20 | 7:07.32 | 106595 | 138651
3 | 30:48.52 | 11:37.60 | 138652 | 190986
Track 1
Filename C:\EAC rips\01 - Certain Blacks ''Do What They Wanna''.wav
Pre-gap length 0:00:02.00
Peak level 95.3 %
Extraction speed 2.7 X
Track quality 99.9 %
Test CRC 92A3F102
Copy CRC 92A3F102
Accurately ripped (confidence 3) [729121AD] (AR v1)
Copy OK
Track 2
Filename C:\EAC rips\02 - One for Jarman.wav
Pre-gap length 0:00:03.60
Peak level 72.9 %
Extraction speed 3.4 X
Track quality 100.0 %
Test CRC 7D8733BC
Copy CRC 7D8733BC
Accurately ripped (confidence 2) [029F5646] (AR v2)
Copy OK
Track 3
Filename C:\EAC rips\03 - Bye Bye Baby.wav
Pre-gap length 0:00:03.60
Peak level 87.1 %
Extraction speed 3.9 X
Track quality 100.0 %
Test CRC FAF262BB
Copy CRC FAF262BB
Accurately ripped (confidence 2) [D1A5C7B5] (AR v2)
Copy OK
All tracks accurately ripped
No errors occurred
End of status report
---- CUETools DB Plugin V2.1.4
[CTDB TOCID: Za768.slf2KIzPYhqYp1H7cnvwk-] found
Submit result: Za768.slf2KIzPYhqYp1H7cnvwk- has been confirmed
Track | CTDB Status
1 | (3/3) Accurately ripped
2 | (3/3) Accurately ripped
3 | (3/3) Accurately ripped
==== Log checksum 2CD6C9F7542A180D955EC377B662EC156645B0E266DBF5344FE532A880C763B7 ====
 
Содержание индексной карты (.CUE)
REM GENRE Jazz
REM DATE 1970
REM DISCID 1A09F203
REM COMMENT "ExactAudioCopy v1.0b3"
PERFORMER "Art Ensemble of Chicago"
TITLE "Certain Blacks"
FILE "01 - Certain Blacks ''Do What They Wanna''.wav" WAVE
TRACK 01 AUDIO
TITLE "Certain Blacks 'Do What They Wanna'"
PERFORMER "Art Ensemble of Chicago"
ISRC FRZ027080390
FLAGS DCP
INDEX 01 00:00:00
TRACK 02 AUDIO
TITLE "One for Jarman"
PERFORMER "Art Ensemble of Chicago"
ISRC FRZ027080410
FLAGS DCP
INDEX 00 23:37:35
FILE "02 - One for Jarman.wav" WAVE
INDEX 01 00:00:00
TRACK 03 AUDIO
TITLE "Bye Bye Baby"
PERFORMER "Art Ensemble of Chicago"
ISRC FRZ027080420
FLAGS DCP
INDEX 00 07:03:47
FILE "03 - Bye Bye Baby.wav" WAVE
INDEX 01 00:00:00
Доп. информация: Recorded February 10, 1970 in Paris at the Studio Decca (rue Beaujon).
 
Состав
Lester Bowie – Trumpet
Chicago Beau – Tenor Saxophone, Piano, Harmonica, Percussions
Joseph Jarman – Alto, Tenor and Soprano Saxophones, Vibes, Percussions
Edward Mitchell Jr (Roscoe Mitchell) – Bass Saxophone
Julio Finn – Harmonica
Malachi Favors – Double Bass, Percussions
William A. Howell – Drums
Any questions -> support@pro-jazz.com. По всем вопросам пишите -> support@pro-jazz.com
09:10
185
Нет комментариев. Ваш будет первым!