Вы используете незарегистрированную версию компонента "Вкладки"!

Поиск

(Free Jazz, Contemporary Jazz, Free Improvisation) The Jon Lloyd Quartet (Paul Rogers, John Law, Mark Sanders) - Head! - 1993, FLAC (image+.cue), lossless

(Free Jazz, Contemporary Jazz, Free Improvisation) The Jon Lloyd Quartet (Paul Rogers, John Law, Mark Sanders) - Head! - 1993, FLAC (image+.cue), lossless
Треклист:
The Jon Lloyd Quartet / Head!
Жанр: Free Jazz, Contemporary Jazz, Free Improvisation
Страна-производитель диска: UK
Год издания: 1993
Издатель (лейбл): Leo Records
Номер по каталогу: CD LR 186
Аудиокодек: FLAC (*.flac)
Тип рипа: image+.cue
Битрейт аудио: lossless
Продолжительность: 75:50
Источник (релизер): cd
Наличие сканов в содержимом раздачи: нет
Треклист:
1. Audax Drop 7:39
2. Fragment 92&93 5:11
3. Slingback 12:51
4. V-Points 10:13
5. Parabola 6:45
6. Jump 16:56
7. Boots 8:48
8. Audax Drop 7:24
 
Лог создания рипа
Exact Audio Copy V1.0 beta 2 from 29. April 2011
EAC extraction logfile from 5. November 2013, 11:16
Jon Lloyd Quartet / Head!
Used drive : Optiarc DVD RW AD-7170A Adapter: 0 ID: 0
Read mode : Secure
Utilize accurate stream : Yes
Defeat audio cache : Yes
Make use of C2 pointers : No
Read offset correction : 48
Overread into Lead-In and Lead-Out : No
Fill up missing offset samples with silence : Yes
Delete leading and trailing silent blocks : No
Null samples used in CRC calculations : Yes
Used interface : Native Win32 interface for Win NT & 2000
Used output format : User Defined Encoder
Selected bitrate : 320 kBit/s
Quality : High
Add ID3 tag : No
Command line compressor : C:\Program Files\Exact Audio Copy\Flac\flac.exe
Additional command line options : -V -8 -T "Date=%year%" -T "Genre=%genre%" %source%
TOC of the extracted CD
Track | Start | Length | Start sector | End sector
---------------------------------------------------------
1 | 0:00.33 | 7:39.12 | 33 | 34469
2 | 7:39.45 | 5:11.08 | 34470 | 57802
3 | 12:50.53 | 12:52.15 | 57803 | 115717
4 | 25:42.68 | 10:14.02 | 115718 | 161769
5 | 35:56.70 | 6:46.63 | 161770 | 192282
6 | 42:43.58 | 16:54.32 | 192283 | 268364
7 | 59:38.15 | 8:48.53 | 268365 | 308017
8 | 68:26.68 | 7:23.65 | 308018 | 341307
Range status and errors
Selected range
Filename K:\ЕАС\Jon Lloyd Quartet - Head!.wav
Peak level 99.8 %
Extraction speed 2.3 X
Range quality 99.9 %
Test CRC 9EEE86C0
Copy CRC 9EEE86C0
Copy OK
No errors occurred
AccurateRip summary
Track 1 accurately ripped (confidence 2) [9A812A26] (AR v2)
Track 2 accurately ripped (confidence 2) [055D734E] (AR v2)
Track 3 accurately ripped (confidence 2) [E544D75D] (AR v2)
Track 4 accurately ripped (confidence 2) [781D6931] (AR v2)
Track 5 accurately ripped (confidence 2) [D0025A65] (AR v2)
Track 6 accurately ripped (confidence 2) [F6BB2253] (AR v2)
Track 7 accurately ripped (confidence 2) [BD550C61] (AR v2)
Track 8 accurately ripped (confidence 2) [B4324AAE] (AR v2)
All tracks accurately ripped
End of status report
==== Log checksum E566F8974CC039FFD137B5494003B3635159D0861382F4979C8EDC553BAADC08 ====
 
Содержание индексной карты (.CUE)
REM GENRE Jazz
REM DATE 1993
REM DISCID 6A11C608
REM COMMENT "ExactAudioCopy v1.0b2"
PERFORMER "Jon Lloyd Quartet"
TITLE "Head!"
FILE "Jon Lloyd Quartet - Head!.flac" WAVE
TRACK 01 AUDIO
TITLE "Audax drop"
PERFORMER "Jon Lloyd Quartet"
INDEX 00 00:00:00
INDEX 01 00:00:33
TRACK 02 AUDIO
TITLE "Fragment 92&93"
PERFORMER "Jon Lloyd Quartet"
INDEX 00 07:39:43
INDEX 01 07:39:45
TRACK 03 AUDIO
TITLE "Slingback"
PERFORMER "Jon Lloyd Quartet"
INDEX 00 12:50:50
INDEX 01 12:50:53
TRACK 04 AUDIO
TITLE "V-points"
PERFORMER "Jon Lloyd Quartet"
INDEX 00 25:42:65
INDEX 01 25:42:68
TRACK 05 AUDIO
TITLE "Parabola"
PERFORMER "Jon Lloyd Quartet"
INDEX 00 35:55:70
INDEX 01 35:56:70
TRACK 06 AUDIO
TITLE "Jump"
PERFORMER "Jon Lloyd Quartet"
INDEX 00 42:43:55
INDEX 01 42:43:58
TRACK 07 AUDIO
TITLE "Boots"
PERFORMER "Jon Lloyd Quartet"
INDEX 00 59:38:13
INDEX 01 59:38:15
TRACK 08 AUDIO
TITLE "Audax drop"
PERFORMER "Jon Lloyd Quartet"
INDEX 00 68:26:65
INDEX 01 68:26:68
Доп. информация: Recorded at the Queen Elizabeth Hall, London, United Kingdom, 1993-01-21 (tracks 1-4); Crucible, Sheffield, United Kingdom, 1993-02-01 (track 5); Turner Sims Theatre, Southampton, United Kingdom, 1993-01-28 (track 6-8)
 
Состав
Double Bass – Paul Rogers
Drums – Mark Sanders
Piano – John Law
Reeds [Saxophones] – Jon Lloyd
Any questions -> support@pro-jazz.com. По всем вопросам пишите -> support@pro-jazz.com
20:02
141
Нет комментариев. Ваш будет первым!