Поиск

(Free Jazz, Contemporary Jazz) [CD] Joe Hertenstein, Pascal Niggenkemper, Thomas Heberer - HNH - 2010, FLAC (tracks+.cue), lossless

(Free Jazz, Contemporary Jazz) [CD] Joe Hertenstein, Pascal Niggenkemper, Thomas Heberer - HNH - 2010, FLAC (tracks+.cue), lossless
Joe Hertenstein, Pascal Niggenkemper, Thomas Heberer / HNH
Жанр: Free Jazz, Contemporary Jazz
Носитель: CD
Страна-производитель диска: Portugal
Год издания: 2010
Издатель (лейбл): Clean Feed
Номер по каталогу: CF205CD
Аудиокодек: FLAC (*.flac)
Тип рипа: tracks+.cue
Битрейт аудио: lossless
Продолжительность: 53:05
Источник (релизер): gssmg7
Наличие сканов в содержимом раздачи: да
Треклист:
1. Screw The Pendulum (6:56)
2. Glulan (3:27)
3. Paul's Age (7:59)
4. Doin' The Do (10:14)
5. Prelude And Tomorrow's Problem (8:08)
6. Lucretia's Legacy / Do I Remember Wrong (9:46)
7. The Tolliver Toll (6:43)
 
Лог создания рипа
Exact Audio Copy V1.0 beta 2 from 29. April 2011
EAC extraction logfile from 1. April 2014, 21:36
Joe Hertenstein, Pascal Niggenkemper, Thomas Heberer / HNH
Used drive : Optiarc DVD RW AD-5280S Adapter: 1 ID: 1
Read mode : Secure
Utilize accurate stream : Yes
Defeat audio cache : Yes
Make use of C2 pointers : No
Read offset correction : 48
Overread into Lead-In and Lead-Out : No
Fill up missing offset samples with silence : Yes
Delete leading and trailing silent blocks : No
Null samples used in CRC calculations : Yes
Used interface : Installed external ASPI interface
Gap handling : Appended to previous track
Used output format : User Defined Encoder
Selected bitrate : 128 kBit/s
Quality : High
Add ID3 tag : No
Command line compressor : C:\Program Files\FLAC\flac.exe
Additional command line options : -V -8 -T "Genre=%genre%" -T "Artist=%artist%" -T "Title=%title%" -T "Album=%albumtitle%" -T "Date=%year%" -T "Tracknumber=%tracknr%" -T "Comment=%comment%" %source%
TOC of the extracted CD
Track | Start | Length | Start sector | End sector
---------------------------------------------------------
1 | 0:00.00 | 6:56.43 | 0 | 31242
2 | 6:56.43 | 3:27.55 | 31243 | 46822
3 | 10:24.23 | 7:59.43 | 46823 | 82790
4 | 18:23.66 | 10:14.29 | 82791 | 128869
5 | 28:38.20 | 8:08.60 | 128870 | 165529
6 | 36:47.05 | 9:46.67 | 165530 | 209546
7 | 46:33.72 | 6:43.44 | 209547 | 239815
Track 1
Filename C:\Joe Hertenstein, Pascal Niggenkemper, Thomas Heberer (2010) - HNH\01 - Screw The Pendulum.wav
Pre-gap length 0:00:02.00
Peak level 97.7 %
Extraction speed 5.3 X
Track quality 100.0 %
Test CRC 080D7755
Copy CRC 080D7755
Accurately ripped (confidence 1) [22C89CEA] (AR v2)
Copy OK
Track 2
Filename C:\Joe Hertenstein, Pascal Niggenkemper, Thomas Heberer (2010) - HNH\02 - Glulan.wav
Pre-gap length 0:00:02.00
Peak level 100.0 %
Extraction speed 5.5 X
Track quality 100.0 %
Test CRC D21C2F5C
Copy CRC D21C2F5C
Accurately ripped (confidence 2) [FBB736C3] (AR v2)
Copy OK
Track 3
Filename C:\Joe Hertenstein, Pascal Niggenkemper, Thomas Heberer (2010) - HNH\03 - Paul's Age.wav
Pre-gap length 0:00:02.00
Peak level 100.0 %
Extraction speed 6.6 X
Track quality 100.0 %
Test CRC 8504A6E9
Copy CRC 8504A6E9
Accurately ripped (confidence 3) [98B644B2] (AR v2)
Copy OK
Track 4
Filename C:\Joe Hertenstein, Pascal Niggenkemper, Thomas Heberer (2010) - HNH\04 - Doin' The Do.wav
Pre-gap length 0:00:02.00
Peak level 100.0 %
Extraction speed 7.6 X
Track quality 100.0 %
Test CRC 30329163
Copy CRC 30329163
Accurately ripped (confidence 3) [9EFCD4E5] (AR v2)
Copy OK
Track 5
Filename C:\Joe Hertenstein, Pascal Niggenkemper, Thomas Heberer (2010) - HNH\05 - Prelude and Tomorrow's Problem.wav
Pre-gap length 0:00:02.00
Peak level 100.0 %
Extraction speed 8.2 X
Track quality 100.0 %
Test CRC 1ADB051D
Copy CRC 1ADB051D
Accurately ripped (confidence 3) [DEF30AD9] (AR v2)
Copy OK
Track 6
Filename C:\Joe Hertenstein, Pascal Niggenkemper, Thomas Heberer (2010) - HNH\06 - Lucretia's Legacy - Do I Remember Wrong.wav
Pre-gap length 0:00:02.00
Peak level 100.0 %
Extraction speed 8.8 X
Track quality 100.0 %
Test CRC FA70903F
Copy CRC FA70903F
Accurately ripped (confidence 3) [1A643118] (AR v2)
Copy OK
Track 7
Filename C:\Joe Hertenstein, Pascal Niggenkemper, Thomas Heberer (2010) - HNH\07 - The Tolliver Toll.wav
Pre-gap length 0:00:02.00
Peak level 100.0 %
Extraction speed 9.1 X
Track quality 100.0 %
Test CRC B7617C39
Copy CRC B7617C39
Accurately ripped (confidence 3) [590942DA] (AR v2)
Copy OK
All tracks accurately ripped
No errors occurred
End of status report
==== Log checksum 38AD2905CFB52086BB0A60E12FCAB14526C09FE5C636E9DDBBC042FDEAB762E1 ====
 
Содержание индексной карты (.CUE)
REM GENRE Jazz
REM DATE 2010
REM DISCID 520C7D07
REM COMMENT "ExactAudioCopy v1.0b2"
PERFORMER "Joe Hertenstein, Pascal Niggenkemper, Thomas Heberer"
TITLE "HNH"
FILE "01 - Screw The Pendulum.wav" WAVE
TRACK 01 AUDIO
TITLE "Screw The Pendulum"
PERFORMER "Joe Hertenstein, Pascal Niggenkemper, Thomas Heberer"
FLAGS DCP
INDEX 01 00:00:00
TRACK 02 AUDIO
TITLE "Glulan"
PERFORMER "Joe Hertenstein, Pascal Niggenkemper, Thomas Heberer"
FLAGS DCP
INDEX 00 06:54:43
FILE "02 - Glulan.wav" WAVE
INDEX 01 00:00:00
TRACK 03 AUDIO
TITLE "Paul's Age"
PERFORMER "Joe Hertenstein, Pascal Niggenkemper, Thomas Heberer"
FLAGS DCP
INDEX 00 03:25:55
FILE "03 - Paul's Age.wav" WAVE
INDEX 01 00:00:00
TRACK 04 AUDIO
TITLE "Doin' The Do"
PERFORMER "Joe Hertenstein, Pascal Niggenkemper, Thomas Heberer"
FLAGS DCP
INDEX 00 07:57:43
FILE "04 - Doin' The Do.wav" WAVE
INDEX 01 00:00:00
TRACK 05 AUDIO
TITLE "Prelude and Tomorrow's Problem"
PERFORMER "Joe Hertenstein, Pascal Niggenkemper, Thomas Heberer"
FLAGS DCP
INDEX 00 10:12:29
FILE "05 - Prelude and Tomorrow's Problem.wav" WAVE
INDEX 01 00:00:00
TRACK 06 AUDIO
TITLE "Lucretia's Legacy - Do I Remember Wrong"
PERFORMER "Joe Hertenstein, Pascal Niggenkemper, Thomas Heberer"
FLAGS DCP
INDEX 00 08:06:60
FILE "06 - Lucretia's Legacy - Do I Remember Wrong.wav" WAVE
INDEX 01 00:00:00
TRACK 07 AUDIO
TITLE "The Tolliver Toll"
PERFORMER "Joe Hertenstein, Pascal Niggenkemper, Thomas Heberer"
FLAGS DCP
INDEX 00 09:44:67
FILE "07 - The Tolliver Toll.wav" WAVE
INDEX 01 00:00:00
 
Доп. информация
Recorded live to 2-track December 2008, NYC
 
Об альбоме (сборнике)
I started the year by giving "Pieces For A Husky Puzzle" with Thomas Heberer on trumpet a five-star rating. Today, we find Heberer back with two fellow countrymen, also from Cologne, Germany : Joe Hertenstein on drums and Pascal Niggenkemper on bass. Heberer was known to me, a fantastic trumpeter with solid background and whose music is hard to predict, ranging from traditional jazz to acoustic and electronic avant-garde. Hertenstein and Niggenkemper I didn't know musically. This is Hertenstein's debut as a leader, and what his trio brings here is a pure delight, finding an interesting niche of incredibly rhythmic free improvisation : the music swings from beginning to end, but then with the improvisational and sonic freedom of modern music, with lots of tempo and rhythm changes, yet never losing the implicit pulse and forward drive that underpins every note they play. The trio leads us through abstract environments but the blues is never far away : tracks like "Screw The Pendulum" and "Lucretia's Legacy" have this deep emotional resonance going back to the origins of jazz, while remaining very open-structured. Other pieces like "Prelude And Tomorrow's Problem" move from the abstract to a more composed form, ending with a theme. Others like "Tolliver's Toll" do the opposite, kicking off in a more traditional way, then quickly shifting to more adventurous territories. Yet at no time do the musicians go beyond the traditional sound of their instruments. There are almost no extended techniques to be heard, which gives the overall sound a pretenseless and honest ring. Technically superb, with wonderful interaction, incredible pulse and creativity, embracing the new without relinquishing tradition, balanced and warm, honest and authentic. Refreshing and great fun to listen to ... again and again. ~ stef, freejazzblog.org, december 1, 2010
The album HNH by drummer and composer Joe Hertenstein’s trio, with Pascal Niggenkemper on bass and Thomas Heberer on trumpet, delves deeply into the jazz and European improvised music traditions. All New York-based German musicians, the European jazz influence is very clear. The album features a range of compositions from very free pieces that seem to be almost completely improvised, to more traditional jazz tunes with a cohesive melody and accompaniment, a swing feel, and a walking bass line. The ensemble blends the two styles together, often with improvised introductions moving into composed pieces, or free solos after a written melody. HNH aims for a transparent ensemble approach in which each sound is important, and can be heard distinctly. The trio’s lean instrumentation of trumpet, drums and bass helps make this possible, but the individual players’ personalities are ultimately most important in the group’s sound. Joe Hertenstein’s playing is generally understated. He focuses on the pure palette of sounds available from his drum kit alone. For a drummer-led album, drum solos on HNH are conspicuously – and refreshingly – absent but for a few moments where Hertenstein’s playing comes to the fore, like on his active and colorful solo on “Prelude and Tomorrow’s Problem.” Hertenstein’s trio mates bring to bear equally expressive musical personalities. Heberer’s trumpet playing unifies traditional and extended trumpet sounds by moving effortlessly from growling, tortured sounds to a warm and round trumpet tone capable of poignant melodic statements. Niggenkemper’s bass playing, similar to Hertenstein’s drumming, generally plays the accompanist’s role with his resonant and clear sound contrasting with Heberer’s more mysterious approach. Niggenkemper’s improvised introduction to “Prelude and Tomorrow’s Problems” is a wide-ranging and rapid succession of timbres for a few beautiful moments as the group comes together again. A drawback to the album is that it has a uniformity of pulse that isn’t broken until the last piece, “The Tolliver Toll,” the album’s only up-tempo tune. The piece is memorable; perhaps the most compelling on the collection. HNH is certainly focused, but perhaps edges a bit toward being constrained in the way of tempos and moods. To have included repertoire with a more wide-ranging sensibility would have made a good album even better. The strength of the HNH is its loose texture as well as the free-spiritedness and expressivity each of the musicians brings to the group improvisations. The trio focuses on a raw and sparse sonority that captures the joy of exploration of the unknown. The delicate, impromptu moments on this recording, when the sounds seem ready to collapse at any moment, are clearly musical goals and not merely unfortunate side effects. The trio trusts in its ability to invent freshly at every moment. Overall, HNH is recommended for fans of freely improvised music and for those looking for an adventurous approach to jazz without the heavy handedness of many free jazz groups. ~ douglas detrick, jazz.about.com, 2010
 
Состав
Joe Hertenstein - drums
Pascal Niggenkemper - bass
Thomas Heberer - trumpet
00:50
310
Нет комментариев. Ваш будет первым!