Поиск

(Avant-Garde Jazz, Free Improvisation) [CD] Wadada Leo Smith & Tumo - Occupy The World (2 CD) - 2013, FLAC (tracks+.cue), lossless

(Avant-Garde Jazz, Free Improvisation) [CD] Wadada Leo Smith & Tumo - Occupy The World (2 CD) - 2013, FLAC (tracks+.cue), lossless
Wadada Leo Smith & Tumo - Occupy The World (2 CD)
Жанр: Avant-Garde Jazz, Free Improvisation
Носитель: CD
Год издания: 2013
Издатель (лейбл): TUM Records
Номер по каталогу: TUM CD 037-2
Аудиокодек: FLAC (*.flac)
Тип рипа: tracks+.cue
Битрейт аудио: lossless
Продолжительность: 54:02 / 58:51
Rip by dtromp
Наличие сканов в содержимом раздачи: да
CD 1

01. Queen Hatshepsut (17:13)
02. The Bell - 2 (15:57)
03. Mount Kilimanjaro (Love And Compassion For John Lindberg) (20:52)
CD 2

01. Crossing On A Southern Road (A Memorial For Marion Brown) (25:21)
02. Occupy The World For Life, Liberty, And Justice (33:30)
 
 
LOG&CUE
 
CD 1
 
Лог создания рипа
Exact Audio Copy V1.0 beta 3 from 29. August 2011
EAC extraction logfile from 1. April 2014, 12:59
Wadada Leo Smith & Tumo / Occupy The World CD1
Used drive : PLEXTOR DVDR PX-860A Adapter: 0 ID: 0
Read mode : Secure
Utilize accurate stream : Yes
Defeat audio cache : Yes
Make use of C2 pointers : No
Read offset correction : 96
Overread into Lead-In and Lead-Out : No
Fill up missing offset samples with silence : Yes
Delete leading and trailing silent blocks : No
Null samples used in CRC calculations : Yes
Used interface : Native Win32 interface for Win NT & 2000
Gap handling : Appended to previous track
Used output format : User Defined Encoder
Selected bitrate : 1024 kBit/s
Quality : High
Add ID3 tag : No
Command line compressor : C:\Program Files\Exact Audio Copy\Flac\flac.exe
Additional command line options : -8 -V -T "ARTIST=%artist%" -T "TITLE=%title%" -T "ALBUM=%albumtitle%" -T "DATE=%year%" -T "TRACKNUMBER=%tracknr%" -T "TOTALTRACKS=%numtracks%" -T "GENRE=%genre%" -T "ALBUMARTIST=%albumartist%" -T "ALBUM ARTIST=%albumartist%" -T "DISCNUMBER=%cdnumber%" -T "TOTALDISCS=%totalcds%" -T "COMMENT=EAC Secure Mode, Test & Copy, AccurateRip, FLAC -8" %source%
TOC of the extracted CD
Track | Start | Length | Start sector | End sector
---------------------------------------------------------
1 | 0:00.00 | 17:12.74 | 0 | 77473
2 | 17:12.74 | 15:56.58 | 77474 | 149231
3 | 33:09.57 | 20:52.20 | 149232 | 243151
Track 1
Filename O:\DL\Wadada Leo Smith & Tumo - Occupy The World CD1 (2013) [FLAC]\01 - Queen Hatshepsut.wav
Pre-gap length 0:00:02.00
Peak level 97.7 %
Extraction speed 5.5 X
Track quality 100.0 %
Test CRC B8884F59
Copy CRC B8884F59
Accurately ripped (confidence 2) [9C3A329C] (AR v2)
Copy OK
Track 2
Filename O:\DL\Wadada Leo Smith & Tumo - Occupy The World CD1 (2013) [FLAC]\02 - The Bell - 2.wav
Pre-gap length 0:00:09.93
Peak level 97.7 %
Extraction speed 6.8 X
Track quality 99.9 %
Test CRC 78187277
Copy CRC 78187277
Accurately ripped (confidence 2) [1B6204B6] (AR v2)
Copy OK
Track 3
Filename O:\DL\Wadada Leo Smith & Tumo - Occupy The World CD1 (2013) [FLAC]\03 - Mount Kilimanjaro (Love And Compassion For John Lindberg).wav
Pre-gap length 0:00:09.40
Peak level 97.7 %
Extraction speed 8.3 X
Track quality 100.0 %
Test CRC EF46CCAE
Copy CRC EF46CCAE
Accurately ripped (confidence 2) [571CD759] (AR v2)
Copy OK
All tracks accurately ripped
No errors occurred
End of status report
---- CUETools DB Plugin V2.1.3
[CTDB TOCID: 8MsbMQDb.2jfGQHM8MOaxO2m7bc-] found, Submit result: 8MsbMQDb.2jfGQHM8MOaxO2m7bc- has been confirmed
[0599d827] (4/4) Accurately ripped
==== Log checksum 1839940CF3E1E36672A417F1FFE4270B39364F6DCCCC1B034EDE0C5B28A3B616 ====
 
Содержание индексной карты (.CUE)
REM GENRE Jazz
REM DATE 2013
REM DISCID 1E0CAA03
REM COMMENT "ExactAudioCopy v1.0b3"
PERFORMER "Wadada Leo Smith & Tumo"
TITLE "Occupy The World CD1"
FILE "01 - Queen Hatshepsut.wav" WAVE
TRACK 01 AUDIO
TITLE "Queen Hatshepsut"
PERFORMER "Wadada Leo Smith & Tumo"
INDEX 01 00:00:00
TRACK 02 AUDIO
TITLE "The Bell - 2"
PERFORMER "Wadada Leo Smith & Tumo"
INDEX 00 17:03:04
FILE "02 - The Bell - 2.wav" WAVE
INDEX 01 00:00:00
TRACK 03 AUDIO
TITLE "Mount Kilimanjaro (Love And Compassion For John Lindberg)"
PERFORMER "Wadada Leo Smith & Tumo"
INDEX 00 15:47:28
FILE "03 - Mount Kilimanjaro (Love And Compassion For John Lindberg).wav" WAVE
INDEX 01 00:00:00
 
CD 2
 
Лог создания рипа
Exact Audio Copy V1.0 beta 3 from 29. August 2011
EAC extraction logfile from 1. April 2014, 13:21
Wadada Leo Smith & Tumo / Occupy The World CD2
Used drive : PLEXTOR DVDR PX-860A Adapter: 0 ID: 0
Read mode : Secure
Utilize accurate stream : Yes
Defeat audio cache : Yes
Make use of C2 pointers : No
Read offset correction : 96
Overread into Lead-In and Lead-Out : No
Fill up missing offset samples with silence : Yes
Delete leading and trailing silent blocks : No
Null samples used in CRC calculations : Yes
Used interface : Native Win32 interface for Win NT & 2000
Gap handling : Appended to previous track
Used output format : User Defined Encoder
Selected bitrate : 1024 kBit/s
Quality : High
Add ID3 tag : No
Command line compressor : C:\Program Files\Exact Audio Copy\Flac\flac.exe
Additional command line options : -8 -V -T "ARTIST=%artist%" -T "TITLE=%title%" -T "ALBUM=%albumtitle%" -T "DATE=%year%" -T "TRACKNUMBER=%tracknr%" -T "TOTALTRACKS=%numtracks%" -T "GENRE=%genre%" -T "ALBUMARTIST=%albumartist%" -T "ALBUM ARTIST=%albumartist%" -T "DISCNUMBER=%cdnumber%" -T "TOTALDISCS=%totalcds%" -T "COMMENT=EAC Secure Mode, Test & Copy, AccurateRip, FLAC -8" %source%
TOC of the extracted CD
Track | Start | Length | Start sector | End sector
---------------------------------------------------------
1 | 0:00.00 | 25:21.37 | 0 | 114111
2 | 25:21.37 | 33:29.73 | 114112 | 264859
Track 1
Filename O:\DL\Wadada Leo Smith & Tumo - Occupy The World CD2 (2013) [FLAC]\01 - Crossing On A Southern Road (A Memorial For Marion Brown).wav
Pre-gap length 0:00:02.00
Peak level 87.3 %
Extraction speed 5.9 X
Track quality 100.0 %
Test CRC EAD33AF0
Copy CRC EAD33AF0
Accurately ripped (confidence 1) [A712BB71] (AR v2)
Copy OK
Track 2
Filename O:\DL\Wadada Leo Smith & Tumo - Occupy The World CD2 (2013) [FLAC]\02 - Occupy The World For Life, Liberty, And Justice.wav
Pre-gap length 0:00:10.24
Peak level 97.7 %
Extraction speed 8.2 X
Track quality 100.0 %
Test CRC 41301B82
Copy CRC 41301B82
Accurately ripped (confidence 1) [96295D24] (AR v2)
Copy OK
All tracks accurately ripped
No errors occurred
End of status report
---- CUETools DB Plugin V2.1.3
[CTDB TOCID: mZM3QlgL2M_ex7kc_vue.2F2e.s-] found, Submit result: mZM3QlgL2M_ex7kc_vue.2F2e.s- has been confirmed
[48cc8781] (4/4) Accurately ripped
==== Log checksum F3C42214823D30994C29DA6D56E994122285F720D5A6E4CECC1F3A7A5272DD88 ====
 
Содержание индексной карты (.CUE)
REM GENRE Jazz
REM DATE 2013
REM DISCID 0D0DCB02
REM COMMENT "ExactAudioCopy v1.0b3"
PERFORMER "Wadada Leo Smith & Tumo"
TITLE "Occupy The World CD2"
FILE "01 - Crossing On A Southern Road (A Memorial For Marion Brown).wav" WAVE
TRACK 01 AUDIO
TITLE "Crossing On A Southern Road (A Memorial For Marion Brown)"
PERFORMER "Wadada Leo Smith & Tumo"
INDEX 01 00:00:00
TRACK 02 AUDIO
TITLE "Occupy The World For Life, Liberty, And Justice"
PERFORMER "Wadada Leo Smith & Tumo"
INDEX 00 25:11:19
FILE "02 - Occupy The World For Life, Liberty, And Justice.wav" WAVE
INDEX 01 00:00:00
 
Об альбоме (сборнике)
"Great trumpeter and composer Wadada Leo Smith's five epic extended compositions collected on the double album Occupy The World mark him as a major American composer with a musical language and artistic vision that transcends the boundaries of the Afro-American heritage of jazz. Smith wrote complex orchestral works before, most notably on the masterful, extensive 4-discs Ten Freedom Summers (Cuneiform, 2012), that addressed political and historical issues still, the expanded and rearranged works represent a new musical triumph within the already large body of compositions of this prolific and gifted musician.
Smith's confounded complex written segments were arranged for a 22- piece Nordic ensemble—TUMO, or Todella Uuden Musiikin Orkesteri (in English, the Really New Music Orchestra), augmented with Smith's close collaborator, bassist John Lindberg—with conducted and collective improvised parts. This musical meeting enables Smith to apply and mix compositional and conducted improvisation methods that he experienced and employed as a player with the large ensembles organized by Chicago´s AACM in the 1960s, Anthony Braxton´s Creative Music Orchestra in the 1970s, the early free improvised meetings of the European Company, the sophisticated orchestral concepts of other European ensembles as Globe Unity Orchestra and Barry Guy orchestras and his own 15-member Silver Orchestra.
The collaboration with TUMO is inspired from beginning to end. TUMO performed for the first time at the TUM records affiliated TUM festival in Helsinki, Finland, in February 2012 under the leadership of Smith. TUMO is not intended to become an institutionalized orchestra, but a loose aggregation of musicians with a shared interest in creative improvised music. TUMO has developed a very strong North European identity, temperament and sound that is different from any other ensemble that Smith has worked with before, including its approach to rhythm, a key element in Smith's composition, improvisation and articulation. This ensemble features some of the leading and most creative improvisers in Finland and the Nordic region, coming from different generations and backgrounds, many of them leaders of their own bands and composers in their own right, among them Finnish trumpeter Verneri Pohjola, saxophonist Mikko Innanen, flutist Juhani Aaltonen, harpist Iro Haarla with Swedish saxophonist Fredrik Ljungkvist and Danish drummer Stefan Pasborg.
The five compositions reflect on Smith's history as a musician, his interests and his unique concepts of balancing between multiple composed and improvised shapes. The first composition, "Queen Hatshepsut," is dedicated to the fifth pharaoh in ancient Egypt (1508- -1458 BC), the first true female ruler of a major civilization in world history. This dramatic composition attempts to mirror the majestic and ceremonial royal courts of Egypt through three sections that involve composite scores that are used to construct their spontaneous individual improvisations, often with Eastern-tinged flavors. The second composition is a new and expanded arrangement of Smith's composition for Braxton's quartet from 3 Compositions of New Jazz (Delmark, 1968). The new version contrasts the imaginative usage of electronics played by Pohjola with the varied sonic spectrums of each the instrumental families, while featuring impressive solos by Smith, Kalima, tuba player Kenneth Ojutkangas and Pohjola, now on trumpet. "Mount Kilimanjaro (Love And Compassion For John Lindberg)," that concludes the first disc, is a sister composition to Smith's "The Africana World," which was recorded by the Silver Orchestra. This intense composition stresses how Lindberg inspired improvisations on the bass later correspond with musical elements that flow from the composed parts for the ensemble, culminating with the three drummers soloing together.
The second disc opens with the somber composition, "Crossing On A Southern Road (A Memorial For Marion Brown)," dedicated to the late saxophonist who was a close friend of Smith. This composition suggests multiple intersections that involve soloists and small units of the large ensemble, as of the strings or brass instruments, and later larger collective improvisations, all together weave the dense crossings into a nuanced, multi-layered texture. The majestic musical journey reaches its climax on "Occupy The World For Life, Liberty And Justice," inspired by the recent protests all over the world about the growing economic disparity. This composition was originally commissioned and premiered by the Oxford Improvisers Orchestra (OIO) in November 2011, and later performed by the Silver Orchestra on the two-day celebration of Smith´s 70th birthday in December 2011. The new expanded version of this soulful composition demands from both Smith, as the conductor and one of its main soloists, as well as from the ensemble to experience its construction from different written fragments during its live performance. This composition features what Smith calls "black holes"—spaces where the musicians collectively enter unchartered territory and are asked to find their way forward around the edge of these "holes."" Takes from allaboutjazz.com
 
Состав
Accordion [Quarter-Tone Accordion] – Veli Kujala
Alto Saxophone, Soprano Saxophone, Baritone Saxophone – Mikko Innanen
Cello – Iida-Vilhelmiina Laine
Conductor, Trumpet, Composed By – Wadada Leo Smith
Double Bass – John Lindberg, Ulf Krokfors
Drums – Mika Kallio, Stefan Pasborg
Drums, Marimba – Janne Tuomi
Electric Guitar – Kalle Kalima, Mikko Iivanainen
Flute, Flute [Alto Flute], Flute [Bass Flute], Piccolo Flute – Juhani Aaltonen
French Horn – Kalle Hassinen
Harp – Iro Haarla
Piano – Seppo Kantonen
Tenor Saxophone, Sopranino Saxophone, Clarinet, Bass Clarinet – Fredrik Ljungqvist*
Trombone – Jari Hongisto
Trumpet, Electronics – Verneri Pohjola
Tuba – Kenneth Ojutkangas
Viola – Barbora Hilpo
Violin – Niels Thorkild Levinsen, Terhi Pylkkänen
00:49
363
Нет комментариев. Ваш будет первым!