Вы используете незарегистрированную версию компонента "Вкладки"!

Поиск

(Free Jazz, Contemporary Jazz, Between The Lines) [CD] Oskar Aichinger (w/ Achim Tang & Paul Skrepek) - Elements Of Poetry - 1999, FLAC (tracks+.cue), lossless

(Free Jazz, Contemporary Jazz, Between The Lines) [CD] Oskar Aichinger (w/ Achim Tang & Paul Skrepek) - Elements Of Poetry - 1999, FLAC (tracks+.cue), lossless
Треклист:
Oskar Aichinger / Elements Of Poetry
Жанр: Free Jazz, Contemporary Jazz, Between The Lines
Носитель: CD
Страна-производитель диска: Germany
Год издания: 1999
Издатель (лейбл): Between The Lines
Номер по каталогу: btl 005 / EFA 10175-2
Страна: Austria
Аудиокодек: FLAC (*.flac)
Тип рипа: tracks+.cue
Битрейт аудио: lossless
Продолжительность: 57:19
Источник (релизер): свой фирменный диск
Наличие сканов в содержимом раздачи:
Треклист:
1. Poemia Trois 6:22
2. Refugium 4:18
3. Elements Of Poetry 1 4:55
4. Perdendosi 4:35
5. Elements Of Poetry 2 5:54
6. Lugubre 4:02
7. Loose Calypso 3:53
8. Air 2:09
9. Andere 4:46
10. In Rilievo 7:20
11. Ridicolosamente 2:26
12. Concordanza 5:45
 
Лог создания рипа
Exact Audio Copy V1.0 beta 3 from 29. August 2011
EAC extraction logfile from 13. April 2014, 18:14
Oskar Aichinger / Elements Of Poetry
Used drive : PIONEER DVD-RW DVR-115D Adapter: 0 ID: 0
Read mode : Secure
Utilize accurate stream : Yes
Defeat audio cache : Yes
Make use of C2 pointers : No
Read offset correction : 48
Overread into Lead-In and Lead-Out : No
Fill up missing offset samples with silence : Yes
Delete leading and trailing silent blocks : No
Null samples used in CRC calculations : Yes
Used interface : Installed external ASPI interface
Gap handling : Appended to previous track
Used output format : User Defined Encoder
Selected bitrate : 896 kBit/s
Quality : High
Add ID3 tag : No
Command line compressor : C:\Program Files\Exact Audio Copy\FLAC\FLAC.EXE
Additional command line options : -6 -V -T "ARTIST=%artist%" -T "TITLE=%title%" -T "ALBUM=%albumtitle%" -T "DATE=%year%" -T "TRACKNUMBER=%tracknr%" -T "GENRE=%genre%" -T "COMMENT=%comment%" -T "BAND=%albuminterpret%" -T "COMPOSER=%composer%" %haslyrics%--tag-from-file=LYRICS="%lyricsfile%"%haslyrics% -T "DISCNUMBER=%cdnumber%" -T "TOTALDISCS=%totalcds%" -T "TOTALTRACKS=%numtracks%" %hascover%--picture="%coverfile%"%hascover% %source% -o %dest%
TOC of the extracted CD
Track | Start | Length | Start sector | End sector
---------------------------------------------------------
1 | 0:00.00 | 6:28.14 | 0 | 29113
2 | 6:28.14 | 4:21.09 | 29114 | 48697
3 | 10:49.23 | 4:58.21 | 48698 | 71068
4 | 15:47.44 | 4:40.01 | 71069 | 92069
5 | 20:27.45 | 5:57.12 | 92070 | 118856
6 | 26:24.57 | 4:07.47 | 118857 | 137428
7 | 30:32.29 | 4:00.29 | 137429 | 155457
8 | 34:32.58 | 2:14.28 | 155458 | 165535
9 | 36:47.11 | 4:49.05 | 165536 | 187215
10 | 41:36.16 | 7:24.09 | 187216 | 220524
11 | 49:00.25 | 2:33.63 | 220525 | 232062
12 | 51:34.13 | 5:45.28 | 232063 | 257965
Track 1
Filename D:\zzz\01 - Poemia Trois.wav
Pre-gap length 0:00:02.00
Peak level 96.6 %
Extraction speed 2.8 X
Track quality 100.0 %
Test CRC B04D544E
Copy CRC B04D544E
Accurately ripped (confidence 2) [686E5D94] (AR v2)
Copy OK
Track 2
Filename D:\zzz\02 - Refugium.wav
Pre-gap length 0:00:06.00
Peak level 70.9 %
Extraction speed 3.0 X
Track quality 100.0 %
Test CRC 8F201D14
Copy CRC 8F201D14
Accurately ripped (confidence 2) [1E623580] (AR v2)
Copy OK
Track 3
Filename D:\zzz\03 - Elements of Poetry 1.wav
Pre-gap length 0:00:03.00
Peak level 96.6 %
Extraction speed 3.2 X
Track quality 100.0 %
Test CRC 3550DE57
Copy CRC 3550DE57
Accurately ripped (confidence 2) [80CFBBAD] (AR v2)
Copy OK
Track 4
Filename D:\zzz\04 - Perdendosi.wav
Pre-gap length 0:00:03.00
Peak level 96.5 %
Extraction speed 3.5 X
Track quality 100.0 %
Test CRC 80698F9A
Copy CRC 80698F9A
Accurately ripped (confidence 2) [60778EF6] (AR v2)
Copy OK
Track 5
Filename D:\zzz\05 - Elements of Poetry 2.wav
Pre-gap length 0:00:05.00
Peak level 96.6 %
Extraction speed 3.9 X
Track quality 100.0 %
Test CRC 8236ECD7
Copy CRC 8236ECD7
Accurately ripped (confidence 2) [223A620A] (AR v2)
Copy OK
Track 6
Filename D:\zzz\06 - Lugubre.wav
Pre-gap length 0:00:03.00
Peak level 96.6 %
Extraction speed 3.5 X
Track quality 99.9 %
Test CRC 56FC5677
Copy CRC 56FC5677
Accurately ripped (confidence 2) [BEC30FC4] (AR v2)
Copy OK
Track 7
Filename D:\zzz\07 - Loose Calypso.wav
Pre-gap length 0:00:05.00
Peak level 86.4 %
Extraction speed 4.0 X
Track quality 100.0 %
Test CRC 2B3934B2
Copy CRC 2B3934B2
Accurately ripped (confidence 2) [AEACB657] (AR v2)
Copy OK
Track 8
Filename D:\zzz\08 - Air.wav
Pre-gap length 0:00:07.00
Peak level 96.6 %
Extraction speed 3.8 X
Track quality 100.0 %
Test CRC 5DFA8BF4
Copy CRC 5DFA8BF4
Accurately ripped (confidence 2) [724A0399] (AR v2)
Copy OK
Track 9
Filename D:\zzz\09 - Andere.wav
Pre-gap length 0:00:05.00
Peak level 96.5 %
Extraction speed 4.3 X
Track quality 100.0 %
Test CRC AE371BEE
Copy CRC AE371BEE
Accurately ripped (confidence 2) [35FDDC66] (AR v2)
Copy OK
Track 10
Filename D:\zzz\10 - In Rilievo.wav
Pre-gap length 0:00:03.00
Peak level 96.6 %
Extraction speed 4.8 X
Track quality 100.0 %
Test CRC 33A045C7
Copy CRC 33A045C7
Accurately ripped (confidence 2) [581C89AC] (AR v2)
Copy OK
Track 11
Filename D:\zzz\11 - Ridicolosamente.wav
Pre-gap length 0:00:04.00
Peak level 96.6 %
Extraction speed 4.3 X
Track quality 100.0 %
Test CRC 210E5627
Copy CRC 210E5627
Accurately ripped (confidence 2) [6C4A1C0F] (AR v2)
Copy OK
Track 12
Filename D:\zzz\12 - Concordanza.wav
Pre-gap length 0:00:07.00
Peak level 75.2 %
Extraction speed 5.0 X
Track quality 100.0 %
Test CRC 629FA846
Copy CRC 629FA846
Accurately ripped (confidence 2) [DCE43034] (AR v2)
Copy OK
All tracks accurately ripped
No errors occurred
End of status report
==== Log checksum 2852FA9ED6B238304B8B75D1276B9243FDFE5BCDCC832F0BE78B285D0E35ED54 ====
 
Содержание индексной карты (.CUE)
REM GENRE Jazz
REM DATE 1999
REM DISCID B60D6F0C
REM COMMENT "ExactAudioCopy v1.0b3"
PERFORMER "Oskar Aichinger"
TITLE "Elements Of Poetry"
FILE "01 - Poemia Trois.wav" WAVE
TRACK 01 AUDIO
TITLE "Poemia Trois"
PERFORMER "Oskar Aichinger"
FLAGS DCP
INDEX 01 00:00:00
TRACK 02 AUDIO
TITLE "Refugium"
PERFORMER "Oskar Aichinger"
FLAGS DCP
INDEX 00 06:22:14
FILE "02 - Refugium.wav" WAVE
INDEX 01 00:00:00
TRACK 03 AUDIO
TITLE "Elements of Poetry 1"
PERFORMER "Oskar Aichinger"
FLAGS DCP
INDEX 00 04:18:09
FILE "03 - Elements of Poetry 1.wav" WAVE
INDEX 01 00:00:00
TRACK 04 AUDIO
TITLE "Perdendosi"
PERFORMER "Oskar Aichinger"
FLAGS DCP
INDEX 00 04:55:21
FILE "04 - Perdendosi.wav" WAVE
INDEX 01 00:00:00
TRACK 05 AUDIO
TITLE "Elements of Poetry 2"
PERFORMER "Oskar Aichinger"
FLAGS DCP
INDEX 00 04:35:01
FILE "05 - Elements of Poetry 2.wav" WAVE
INDEX 01 00:00:00
TRACK 06 AUDIO
TITLE "Lugubre"
PERFORMER "Oskar Aichinger"
FLAGS DCP
INDEX 00 05:54:12
FILE "06 - Lugubre.wav" WAVE
INDEX 01 00:00:00
TRACK 07 AUDIO
TITLE "Loose Calypso"
PERFORMER "Oskar Aichinger"
FLAGS DCP
INDEX 00 04:02:47
FILE "07 - Loose Calypso.wav" WAVE
INDEX 01 00:00:00
TRACK 08 AUDIO
TITLE "Air"
PERFORMER "Oskar Aichinger"
FLAGS DCP
INDEX 00 03:53:29
FILE "08 - Air.wav" WAVE
INDEX 01 00:00:00
TRACK 09 AUDIO
TITLE "Andere"
PERFORMER "Oskar Aichinger"
FLAGS DCP
INDEX 00 02:09:28
FILE "09 - Andere.wav" WAVE
INDEX 01 00:00:00
TRACK 10 AUDIO
TITLE "In Rilievo"
PERFORMER "Oskar Aichinger"
FLAGS DCP
INDEX 00 04:46:05
FILE "10 - In Rilievo.wav" WAVE
INDEX 01 00:00:00
TRACK 11 AUDIO
TITLE "Ridicolosamente"
PERFORMER "Oskar Aichinger"
FLAGS DCP
INDEX 00 07:20:09
FILE "11 - Ridicolosamente.wav" WAVE
INDEX 01 00:00:00
TRACK 12 AUDIO
TITLE "Concordanza"
PERFORMER "Oskar Aichinger"
FLAGS DCP
INDEX 00 02:26:63
FILE "12 - Concordanza.wav" WAVE
INDEX 01 00:00:00
 
Лог проверки качества
d:\>d:\aucdtect -d/-m0 d:\zzz\*.wav
auCDtect: CD records authenticity detector, version 0.8.2
Copyright (c) 2004 Oleg Berngardt. All rights reserved.
Copyright (c) 2004 Alexander Djourik. All rights reserved.
------------------------------------------------------------
Processing file: [01. Poemia Trois.wav]
------------------------------------------------------------
This track looks like CDDA with probability 100%
------------------------------------------------------------
Processing file: [02. Refugium.wav]
------------------------------------------------------------
This track looks like CDDA with probability 100%
------------------------------------------------------------
Processing file: [03. Elements of Poetry 1.wav]
------------------------------------------------------------
This track looks like CDDA with probability 100%
------------------------------------------------------------
Processing file: [04. Perdendosi.wav]
------------------------------------------------------------
This track looks like CDDA with probability 100%
------------------------------------------------------------
Processing file: [05. Elements of Poetry 2.wav]
------------------------------------------------------------
This track looks like CDDA with probability 100%
------------------------------------------------------------
Processing file: [06. Lugubre.wav]
------------------------------------------------------------
This track looks like CDDA with probability 99%
------------------------------------------------------------
Processing file: [07. Loose Calypso.wav]
------------------------------------------------------------
This track looks like CDDA with probability 100%
------------------------------------------------------------
Processing file: [08. Air.wav]
------------------------------------------------------------
This track looks like CDDA with probability 100%
------------------------------------------------------------
Processing file: [09. Andere.wav]
------------------------------------------------------------
This track looks like CDDA with probability 100%
------------------------------------------------------------
Processing file: [10. In Rilievo.wav]
------------------------------------------------------------
This track looks like CDDA with probability 100%
------------------------------------------------------------
Processing file: [11. Ridicolosamente.wav]
------------------------------------------------------------
This track looks like CDDA with probability 100%
------------------------------------------------------------
Processing file: [12. Concordanza.wav]
------------------------------------------------------------
This track looks like CDDA with probability 100%
------------------------------------------------------------
Final Conclusion:
------------------------------------------------------------
These tracks looks like CDDA with probability 100%
Доп. информация:
 
Album Info & AMG Review
All compositions by Oskar Aichinger except 4,7,8,11 by Aichinger, Tang, Skrepek
Recorded at Franz Hochedlinger Gasse 24, Vienna, May 8th, 1999
Recording engineer: Josef Novotny
Cover art work: Jutta Obenhuber
Graphic design: fuhrer vienna
Produced by Between The Lines GmbH & Co. oHG
Artistic director: Franz Koglmann
Special thanks to my wife Maria and to my son Paul for his specific kind of inspiration. - O.A.
A pianist who listens closely to sound, and is serious about every note, Oskar Aichinger is joined by bassist Achim Tang and drummer Paul Skrepek Jun for 12 original compositions. The title of the recording is appropriate, as there is a lovely ambience to the whole, but one that never gets lost in sentimentality. Rather, Achinger focuses on color, timbre, and the combination of clusters to create some very attractive lines. At times, the pianist takes it outside with advanced techniques, but sound is never subordinate to technique. Jun proves himself a worthy partner throughout, as he sprays layers of finely formulated percussion. Sometimes, the sounds are hardly recognizable, but they are always in good taste, and although the pianist gets lost in himself occasionally, there is plenty of rewarding listening of the highest quality and creativity.
 
Состав
Oskar Aichinger: piano, liner notes
Achim Tang: bass
Paul Skrepek Jun.: drums
По всем вопросам пишите личное сообщение пользователю M0p94ok.
02:13
139
Нет комментариев. Ваш будет первым!