Вы используете незарегистрированную версию компонента "Вкладки"!

Поиск

(Free Jazz, Avant-Garde Jazz, Black Saint) [CD] Glenn Spearman (w/ Marco Eneidi, Lisle Ellis, Raphe Malik, Paul Plimley a.o.) - Free Worlds - 2000, FLAC (tracks+.cue), lossless

(Free Jazz, Avant-Garde Jazz, Black Saint) [CD] Glenn Spearman (w/ Marco Eneidi, Lisle Ellis, Raphe Malik, Paul Plimley a.o.) - Free Worlds - 2000, FLAC (tracks+.cue), lossless
Треклист:
Glenn Spearman / Free Worlds
Жанр: Free Jazz, Avant-Garde Jazz, Black Saint
Носитель: CD
Страна-производитель диска: Italy
Год издания: 2000
Издатель (лейбл): Black Saint
Номер по каталогу: 120207-2
Страна: US
Аудиокодек: FLAC (*.flac)
Тип рипа: tracks+.cue
Битрейт аудио: lossless
Продолжительность: 74:12
Источник (релизер): свой фирменный диск
Наличие сканов в содержимом раздачи:
Треклист:
1. Blare 9:20
2. Long Forward Pasts 11:38
3. Fields Before The Ram 12:26
4. Raga Shamwati 9:22
5. The Skin She Bears 3:52
6. Graduation 10:03
7. Pipes, Spirit & Bronze 5:53
8. Lyons Roars 11:35
 
Лог создания рипа
Exact Audio Copy V1.0 beta 3 from 29. August 2011
EAC extraction logfile from 14. April 2014, 22:23
Glenn Spearman / Free Worlds
Used drive : PIONEER DVD-RW DVR-115D Adapter: 0 ID: 0
Read mode : Secure
Utilize accurate stream : Yes
Defeat audio cache : Yes
Make use of C2 pointers : No
Read offset correction : 48
Overread into Lead-In and Lead-Out : No
Fill up missing offset samples with silence : Yes
Delete leading and trailing silent blocks : No
Null samples used in CRC calculations : Yes
Used interface : Installed external ASPI interface
Gap handling : Appended to previous track
Used output format : User Defined Encoder
Selected bitrate : 896 kBit/s
Quality : High
Add ID3 tag : No
Command line compressor : C:\Program Files\Exact Audio Copy\FLAC\FLAC.EXE
Additional command line options : -6 -V -T "ARTIST=%artist%" -T "TITLE=%title%" -T "ALBUM=%albumtitle%" -T "DATE=%year%" -T "TRACKNUMBER=%tracknr%" -T "GENRE=%genre%" -T "COMMENT=%comment%" -T "BAND=%albuminterpret%" -T "COMPOSER=%composer%" %haslyrics%--tag-from-file=LYRICS="%lyricsfile%"%haslyrics% -T "DISCNUMBER=%cdnumber%" -T "TOTALDISCS=%totalcds%" -T "TOTALTRACKS=%numtracks%" %hascover%--picture="%coverfile%"%hascover% %source% -o %dest%
TOC of the extracted CD
Track | Start | Length | Start sector | End sector
---------------------------------------------------------
1 | 0:00.00 | 9:20.55 | 0 | 42054
2 | 9:20.55 | 11:38.15 | 42055 | 94419
3 | 20:58.70 | 12:26.60 | 94420 | 150429
4 | 33:25.55 | 9:22.50 | 150430 | 192629
5 | 42:48.30 | 3:52.10 | 192630 | 210039
6 | 46:40.40 | 10:03.52 | 210040 | 255316
7 | 56:44.17 | 5:53.00 | 255317 | 281791
8 | 62:37.17 | 11:35.15 | 281792 | 333931
Track 1
Filename D:\zzz\01 - Blare.wav
Pre-gap length 0:00:02.00
Peak level 99.8 %
Extraction speed 5.1 X
Track quality 99.9 %
Test CRC 86CECCB5
Copy CRC 86CECCB5
Accurately ripped (confidence 1) [D05F491B] (AR v1)
Copy OK
Track 2
Filename D:\zzz\02 - Long Forward Pasts.wav
Peak level 79.0 %
Extraction speed 6.2 X
Track quality 99.9 %
Test CRC C20C9507
Copy CRC C20C9507
Accurately ripped (confidence 1) [13D4CE36] (AR v1)
Copy OK
Track 3
Filename D:\zzz\03 - Fields Before The Ram.wav
Peak level 99.9 %
Extraction speed 7.5 X
Track quality 100.0 %
Test CRC EC6ECC7D
Copy CRC EC6ECC7D
Accurately ripped (confidence 1) [601AD0FE] (AR v1)
Copy OK
Track 4
Filename D:\zzz\04 - Raga Shamwati.wav
Peak level 99.8 %
Extraction speed 8.1 X
Track quality 100.0 %
Test CRC 08F607CA
Copy CRC 08F607CA
Accurately ripped (confidence 1) [FA63C08B] (AR v1)
Copy OK
Track 5
Filename D:\zzz\05 - The Skin She Bears.wav
Peak level 99.9 %
Extraction speed 7.8 X
Track quality 100.0 %
Test CRC 0BEEC3A6
Copy CRC 0BEEC3A6
Accurately ripped (confidence 1) [D715D766] (AR v1)
Copy OK
Track 6
Filename D:\zzz\06 - Graduation.wav
Peak level 99.8 %
Extraction speed 9.0 X
Track quality 100.0 %
Test CRC 0DBB52B4
Copy CRC 0DBB52B4
Accurately ripped (confidence 1) [110F3E16] (AR v1)
Copy OK
Track 7
Filename D:\zzz\07 - Pipes, Spirit & Bronze.wav
Peak level 79.3 %
Extraction speed 9.0 X
Track quality 100.0 %
Test CRC 34A71609
Copy CRC 34A71609
Accurately ripped (confidence 1) [EB051C55] (AR v1)
Copy OK
Track 8
Filename D:\zzz\08 - Lyons Roars.wav
Peak level 99.8 %
Extraction speed 9.5 X
Track quality 99.9 %
Test CRC DF7E9381
Copy CRC DF7E9381
Accurately ripped (confidence 1) [ED0CC307] (AR v1)
Copy OK
All tracks accurately ripped
No errors occurred
End of status report
==== Log checksum A6B1D887DBA3DA1CB3D22E32B6FBC405C0D5DD3835EFC90AF8AA720630D10451 ====
 
Содержание индексной карты (.CUE)
REM GENRE "Free Jazz"
REM DATE 2000
REM DISCID 60116408
REM COMMENT "ExactAudioCopy v1.0b3"
PERFORMER "Glenn Spearman"
TITLE "Free Worlds"
FILE "01 - Blare.wav" WAVE
TRACK 01 AUDIO
TITLE "Blare"
PERFORMER "Glenn Spearman"
INDEX 01 00:00:00
FILE "02 - Long Forward Pasts.wav" WAVE
TRACK 02 AUDIO
TITLE "Long Forward Pasts"
PERFORMER "Glenn Spearman"
INDEX 01 00:00:00
FILE "03 - Fields Before The Ram.wav" WAVE
TRACK 03 AUDIO
TITLE "Fields Before The Ram"
PERFORMER "Glenn Spearman"
INDEX 01 00:00:00
FILE "04 - Raga Shamwati.wav" WAVE
TRACK 04 AUDIO
TITLE "Raga Shamwati"
PERFORMER "Glenn Spearman"
INDEX 01 00:00:00
FILE "05 - The Skin She Bears.wav" WAVE
TRACK 05 AUDIO
TITLE "The Skin She Bears"
PERFORMER "Glenn Spearman"
INDEX 01 00:00:00
FILE "06 - Graduation.wav" WAVE
TRACK 06 AUDIO
TITLE "Graduation"
PERFORMER "Glenn Spearman"
INDEX 01 00:00:00
FILE "07 - Pipes, Spirit & Bronze.wav" WAVE
TRACK 07 AUDIO
TITLE "Pipes, Spirit & Bronze"
PERFORMER "Glenn Spearman"
INDEX 01 00:00:00
FILE "08 - Lyons Roars.wav" WAVE
TRACK 08 AUDIO
TITLE "Lyons Roars"
PERFORMER "Glenn Spearman"
INDEX 01 00:00:00
 
Лог проверки качества
d:\>d:\aucdtect -d/-m0 d:\zzz\*.wav
auCDtect: CD records authenticity detector, version 0.8.2
Copyright (c) 2004 Oleg Berngardt. All rights reserved.
Copyright (c) 2004 Alexander Djourik. All rights reserved.
------------------------------------------------------------
Processing file: [01. Blare.wav]
------------------------------------------------------------
This track looks like CDDA with probability 100%
------------------------------------------------------------
Processing file: [02. Long Forward Pasts.wav]
------------------------------------------------------------
This track looks like CDDA with probability 100%
------------------------------------------------------------
Processing file: [03. Fields Before The Ram.wav]
------------------------------------------------------------
This track looks like CDDA with probability 99%
------------------------------------------------------------
Processing file: [04. Raga Shamwati.wav]
------------------------------------------------------------
This track looks like CDDA with probability 99%
------------------------------------------------------------
Processing file: [05. The Skin She Bears.wav]
------------------------------------------------------------
This track looks like CDDA with probability 100%
------------------------------------------------------------
Processing file: [06. Graduation.wav]
------------------------------------------------------------
This track looks like CDDA with probability 100%
------------------------------------------------------------
Processing file: [07. Pipes, Spirit & Bronze.wav]
------------------------------------------------------------
This track looks like CDDA with probability 100%
------------------------------------------------------------
Processing file: [08. Lyons Roars.wav]
------------------------------------------------------------
This track looks like CDDA with probability 99%
------------------------------------------------------------
Final Conclusion:
------------------------------------------------------------
These tracks looks like CDDA with probability 100%
Доп. информация:
 
Album Info & AMG Review
(Spearman) - 1,3,6,7,8
(Ellis/Plimley/Robinson/Spearman) - 2
(Traditional) - 4
(Paul/Robinson/Routhier/Spearman) - 5
Recorded on May 1994 at Mobius Music, San Francisco, CA (1,3,6,8)
Recorded on June 1994 at Mobius Music, San Francisco, CA (2,7)
Recorded on June 1995 at Sharkbite Studio, Oakland, CA (4)
Recorded on December 1994 at Guerilla Euphonics, Oakland, CA (5)
Engineer: Oliver DeCicco (1,2,3,6,7,8), Mark Keaton (4), Myles Boisen (5)
Mastered at Disctronics, Tribiano Milano / Engineer: Aldo Borrelli
Producer: Don Paul / Executive producer: Flavio Bonandrini
Design: Don Paul and Dub Runnerz
Photo: Eleanor Lindgren of Glenn Spearman in performance with his Double Trio at Great American Music Hall
Liner notes: Don Paul
Glenn Spearman's premature death from cancer in 1998 was a tragic loss for avant-garde jazz. Although not a huge name in the jazz world, Spearman was an expressive tenor saxman who played with a lot of passion. The Californian's integrity shines through on Free Worlds, a posthumous release that focuses on some sessions he led in the Bay Area in 1994 and 1995. Sometimes reflective, sometimes forceful, and always uncompromising, this CD reminds us how honest a player Spearman was. Spearman played what he felt, and on Free Worlds what he feels is very abstract, angular, and left-of-center. The least outside pieces on Free Worlds are "Pipes, Spirit & Bronze" and the traditional "Raga Shamwati," which employs Indian singers and tabla drums and puts an eccentric spin on raga playing. But as appealing as Spearman's explorations are, Free Worlds isn't for everyone. While those who believe that hard bop is the only form of jazz that has a right to exist would do well to look elsewhere, Free Worlds is recommended to those with a taste for free jazz and the avant-garde.
 
Состав
Glenn Spearman: tenor saxophone
Marco Eneidi: alto saxophone (1,3,6,8)
J.R. Routhier: electric guitar (1,3,5,6,8)
Lisle Ellis: double bass (1,2,3,6,7,8)
Raphe Malik: trumpet (1,3,6,8)
Donald Robinson: drums (1,2,3,5,6,7,8)
Paul Plimley: piano (2,7)
Shafqat Ali Khan: voice (4)
Dhyani Dharma Mas: acoustic guitar (4)
Ustad Salamat Ali Khan: voice (4)
John Baker: synthesizer (4)
Tim Witter: tabla (4)
Don Paul: voice (5)
По всем вопросам пишите личное сообщение пользователю M0p94ok.
02:14
183
Нет комментариев. Ваш будет первым!