Вы используете незарегистрированную версию компонента "Вкладки"!

Поиск

(free jazz, contemporary, hat[now]art, modern creative) Guillermo Gregorio - Faktura - 2002, APE (image+.cue) lossless

Треклист:
Guillermo Gregorio / Faktura
Жанр: free jazz, contemporary, hat[now]art
Страна-производитель диска: Switzerland
Год издания диска: 2002
Издатель (лейбл): hat[now]ART
Номер по каталогу: hat[now]ART 146
Аудио кодек: APE (*.ape)
Тип рипа: image+.cue
Битрейт аудио: lossless
Продолжительность: 69:19
Источник (релизер): basa005
Наличие сканов в содержимом раздачи: да
Треклист:
1-Madi piece 2 (03.39)
2-Fifteen variations for clarinet (06.48)
3-Rodchenko suite part one (03.47)
4-Rodchenko suite first interlude (01.53)
5-Rodchenko suite part two (05.16)
6-Rodchenko suite second interlude (01.54)
7-Rodchenko suite part three (14.01)
8-Three systems for cello (03.12)
9-Construction with three groups (05.11)
10-Systems and variations for piano (12.13)
11-Madi piece 1 (04.51)
12-What is madi? (06.33)
Recorded at Airwave Studios, Chicago on 20 July and 14 October 2000 except track 2 at Beatty Lane Studio, Chicago on 12 February 1999 and tracks 4 and 6 at Experimental Sound Studio, Chicago on 7 December 2000.
Graphic concept (front cover reproduced above) by fuhrer vienna.
 
Лог создания рипа
Exact Audio Copy V0.99 prebeta 4 from 23. January 2008
Estrazione File Di Log EAC Del 15. Gennaio 2010, 16:13
Artista Sconosciuto / Titolo Sconosciuto
Unitа Predefinita: ATAPI DVD A DH16A1L Adapter: 1 ID: 0
Modalitа Di Lettura: : Sicura
Utilizza Lettura Accurata : Sм
Disattiva Cache Audio : Sм
Rileva Errori Lettura C2 : Sм
Correzione Offset Di Lettura: : 6
Sovrascrivi Anche Nel Lead-In E Lead-Out : No
Riempi Sample Offset Mancanti Con Silenzio : Sм
Rimuovi Blocchi Di Silenzio Ad Inizio E Fine Traccia : No
Usa I Sample Nulli Nel Calcolo CRC : Sм
Interfaccia Usata : Interfaccia Nativa Win32 Per Windows NT & 2000
Formato Di Destinazione Scelto: : Routine Interne WAV
Formato Sample : 44.100 Hz; 16 Bit; Stereo
TOC Del CD Estratto
Traccia | Inizio | Lunghezza | Inizio Settore | Fine Settore
----------------------------------------------------------------
1 | 0:00.00 | 3:39.62 | 0 | 16486
2 | 3:39.62 | 6:48.00 | 16487 | 47086
3 | 10:27.62 | 3:47.00 | 47087 | 64111
4 | 14:14.62 | 1:53.00 | 64112 | 72586
5 | 16:07.62 | 5:16.00 | 72587 | 96286
6 | 21:23.62 | 1:53.63 | 96287 | 104824
7 | 23:17.50 | 14:01.12 | 104825 | 167911
8 | 37:18.62 | 3:12.00 | 167912 | 182311
9 | 40:30.62 | 5:11.00 | 182312 | 205636
10 | 45:41.62 | 12:13.00 | 205637 | 260611
11 | 57:54.62 | 4:51.00 | 260612 | 282436
12 | 62:45.62 | 6:33.13 | 282437 | 311924
Stato Intervallo Ed Errori
Intervallo Selezionato
Nome File C:\avaxhome\Guillermo Gregorio - Faktura.wav
Livello Di Picco 99.4 %
Qualitа Intervallo 99.9 %
Copia CRC F83EF0AC
Copia Corretta
Non Sono Stati Riscontrati Errori
Sommario Accuraterip
Traccia 1 Non Presente Nel Database
Traccia 2 Non Presente Nel Database
Traccia 3 Non Presente Nel Database
Traccia 4 Non Presente Nel Database
Traccia 5 Non Presente Nel Database
Traccia 6 Non Presente Nel Database
Traccia 7 Non Presente Nel Database
Traccia 8 Non Presente Nel Database
Traccia 9 Non Presente Nel Database
Traccia 10 Non Presente Nel Database
Traccia 11 Non Presente Nel Database
Traccia 12 Non Presente Nel Database
Nessuna Delle Tracce и Presente Nel Database AccurateRip
Fine Del Resoconto Di Stato
 
Состав
Guillermo Gregorio, clarinet, conductor; Jim Baker, piano (track 10); Carrie Biolo, vibes, marimba, percussion (tracks 1, 5, 7, 9, 11, 12); Fred Longberg-Holm, cello (tracks 3, 5, 7, 8, 11); Jeff Parker, electric guitar (tracks 1, 9); Francois Houle, clarinet (track 2); Kyle Bruckmann, oboe (tracks 3, 7); Robbie Hunsinger, english horn (track 7); Jeb Bishop, trombone (track 7); Jen Paulson, viola (track 7); Michael Cameron, acoustic bass (tracks 3, 7); Lou Mallozzi, concrete sound.
Any questions -> support@pro-jazz.com. По всем вопросам пишите -> support@pro-jazz.com
10:26
140
Нет комментариев. Ваш будет первым!