Вы используете незарегистрированную версию компонента "Вкладки"!

Поиск

(free jazz, contemporary, hat[now]art, classical, electronic ) Guillermo Gregorio - Degrees of Iconicity - 2000, APE (image+.cue) lossless

Треклист:
Guillermo Gregorio / Degrees of Iconicity
Жанр: free jazz, contemporary, hat[now]art
Страна-производитель диска: Switzerland
Год издания диска: 2000
Издатель (лейбл): hat[now]ART
Номер по каталогу: hat[now]ART 134
Аудио кодек: APE (*.ape)
Тип рипа: image+.cue
Битрейт аудио: lossless
Продолжительность: 66:24
Источник (релизер): basa005
Наличие сканов в содержимом раздачи: да
Треклист:
1. Tres 5:26
2. First Sketch for "Omaggio a Luigi Nono" 10:41
3. Moholy 2 2:09
4. Construction in Three Parts 11:30
5. Konkretion 1 3:39
6. Con trabajo 3:13
7. Counter-Composition 10:12
8. Construction in Nine Fields 7:44
9. Moholy 3 2:23
10. Degrees of Iconicity 9:27
Guillermo Gregorio, clarinet, alto saxophone, conductor.
Carrie Biolo, vibraphone, marimba, and in Counter-Composition, tape-component realization.
Fred Lonberg-Holm, cello, cornet.
Michael Cameron and Kent Kessler, acoustic bass
 
Лог создания рипа
Exact Audio Copy V0.99 prebeta 4 from 23. January 2008
EAC extraction logfile from 23. March 2011, 15:27
Guillermo Gregorio / Degrees of Iconicity
Used drive : ATAPI DVD A DH16A1L Adapter: 1 ID: 0
Read mode : Secure
Utilize accurate stream : Yes
Defeat audio cache : Yes
Make use of C2 pointers : No
Read offset correction : 6
Overread into Lead-In and Lead-Out : No
Fill up missing offset samples with silence : Yes
Delete leading and trailing silent blocks : No
Null samples used in CRC calculations : Yes
Used interface : Native Win32 interface for Win NT & 2000
Used output format : Internal WAV Routines
Sample format : 44.100 Hz; 16 Bit; Stereo
TOC of the extracted CD
Track | Start | Length | Start sector | End sector
---------------------------------------------------------
1 | 0:00.00 | 5:26.62 | 0 | 24511
2 | 5:26.62 | 10:41.00 | 24512 | 72586
3 | 16:07.62 | 2:09.00 | 72587 | 82261
4 | 18:16.62 | 11:30.00 | 82262 | 134011
5 | 29:46.62 | 3:39.00 | 134012 | 150436
6 | 33:25.62 | 3:13.00 | 150437 | 164911
7 | 36:38.62 | 10:12.00 | 164912 | 210811
8 | 46:50.62 | 7:44.00 | 210812 | 245611
9 | 54:34.62 | 2:23.00 | 245612 | 256336
10 | 56:57.62 | 9:27.13 | 256337 | 298874
Range status and errors
Selected range
Filename C:\avaxhome\Guillermo Gregorio - Degrees of Iconicity.wav
Peak level 99.8 %
Range quality 100.0 %
Copy CRC 6D03BAAC
Copy OK
No errors occurred
AccurateRip summary
Track 1 cannot be verified as accurate (confidence 1) [9C191B69], AccurateRip returned [D693E842]
Track 2 cannot be verified as accurate (confidence 1) [C7E21854], AccurateRip returned [46C2FC36]
Track 3 cannot be verified as accurate (confidence 1) [AFEB2406], AccurateRip returned [87E5029D]
Track 4 cannot be verified as accurate (confidence 1) [E2A64E3F], AccurateRip returned [48D6C802]
Track 5 cannot be verified as accurate (confidence 1) [B0D6AE08], AccurateRip returned [0B8B4FDA]
Track 6 cannot be verified as accurate (confidence 1) [6D3D3D14], AccurateRip returned [0B14274D]
Track 7 cannot be verified as accurate (confidence 1) [A77721FD], AccurateRip returned [70845117]
Track 8 cannot be verified as accurate (confidence 1) [232027AE], AccurateRip returned [FD1BE301]
Track 9 cannot be verified as accurate (confidence 1) [1BF91BDA], AccurateRip returned [5A3C4FB0]
Track 10 cannot be verified as accurate (confidence 1) [0181B86B], AccurateRip returned [8C8E40F6]
No tracks could be verified as accurate
You may have a different pressing from the one(s) in the database
End of status report
 
Содержание индексной карты (.CUE)
REM DISCID 8E0F910A
REM COMMENT "ExactAudioCopy v0.99pb4"
PERFORMER "Guillermo Gregorio"
TITLE "Degrees of Iconicity"
FILE "Guillermo Gregorio - Degrees of Iconicity.APE" WAVE
TRACK 01 AUDIO
TITLE "Tres"
PERFORMER "Guillermo Gregorio"
INDEX 01 00:00:00
TRACK 02 AUDIO
TITLE "First Sketch for 'Omaggio a Luigi Nono'"
PERFORMER "Guillermo Gregorio"
INDEX 01 05:26:62
TRACK 03 AUDIO
TITLE "Moholy 2"
PERFORMER "Guillermo Gregorio"
INDEX 01 16:07:62
TRACK 04 AUDIO
TITLE "Construction in Three Parts"
PERFORMER "Guillermo Gregorio"
INDEX 00 18:16:52
INDEX 01 18:16:62
TRACK 05 AUDIO
TITLE "Konkretion I"
PERFORMER "Guillermo Gregorio"
INDEX 01 29:46:62
TRACK 06 AUDIO
TITLE "Con trabajo"
PERFORMER "Guillermo Gregorio"
INDEX 01 33:25:62
TRACK 07 AUDIO
TITLE "Counter-Composition"
PERFORMER "Guillermo Gregorio"
INDEX 01 36:38:62
TRACK 08 AUDIO
TITLE "Construction in Nine Fields"
PERFORMER "Guillermo Gregorio"
INDEX 01 46:50:62
TRACK 09 AUDIO
TITLE "Moholy 3"
PERFORMER "Guillermo Gregorio"
INDEX 00 54:34:61
INDEX 01 54:34:62
TRACK 10 AUDIO
TITLE "Degrees of Iconicity"
PERFORMER "Guillermo Gregorio"
INDEX 01 56:57:62
 
Об альбоме (сборнике)
"Much more directly than, for example, Webern, Feldman, or Tristano, who have often been cited as influencing my work, I think that the most important elements acting on my music come from the visual arts more specifically, from the so-called "constructive" tendencies of 20th century art, namely, some varieties of Constructivism and Concrete Art." Guillermo Gregorio, from the liner notes.
По всем вопросам пишите личное сообщение пользователю M0p94ok.
10:16
131
Нет комментариев. Ваш будет первым!