Вы используете незарегистрированную версию компонента "Вкладки"!

Поиск

(free jazz, clean fead) [cd] Pascal Niggenkemper Vision7 - Lucky Prime (2013, CF283CD), FLAC (tracks+.cue), lossless

(free jazz, clean fead) [cd] Pascal Niggenkemper Vision7 - Lucky Prime (2013, CF283CD), FLAC (tracks+.cue), lossless
Треклист:
(free jazz, clean fead) [cd] Pascal Niggenkemper Vision7 - Lucky Prime (2013, CF283CD), FLAC (tracks+.cue), lossless


Pascal Niggenkemper Vision7 - Lucky Prime (2013, CF283CD)

Жанр:free jazz
Год выпуска: (2013
Издатель (лейбл):Clean Feed / CF 283
Формат: FLAC (tracks+.cue)
Битрейт аудио: lossless
Продолжительность 53`48
Источник:what.cd

tracks

1 Carnet Plein D'histoires
2 Dia De Los Muertos
3 Fuertreppe
4 En Urgence
5 I Don´t Know Why, But This Morning...
6 Ke Belle
7 Lance De Lanze
8 Sortir De La Colère


 
.log
Exact Audio Copy V1.0 beta 3 from 29. August 2011
EAC extraction logfile from 31. January 2014, 20:05
Pascal Niggenkemper Vision7 / Lucky Prime
Used drive : TSSTcorpCD/DVDW SH-S182M Adapter: 2 ID: 0
Read mode : Secure
Utilize accurate stream : Yes
Defeat audio cache : Yes
Make use of C2 pointers : No
Read offset correction : 6
Overread into Lead-In and Lead-Out : No
Fill up missing offset samples with silence : Yes
Delete leading and trailing silent blocks : No
Null samples used in CRC calculations : Yes
Used interface : Installed external ASPI interface
Gap handling : Appended to previous track
Used output format : User Defined Encoder
Selected bitrate : 1024 kBit/s
Quality : High
Add ID3 tag : No
Command line compressor : C:\Program Files\eac-1.0beta3\FLAC\FLAC.EXE
Additional command line options : -8 -V -T "ARTIST=%artist%" -T "TITLE=%title%" -T "ALBUM=%albumtitle%" -T "DATE=%year%" -T "TRACKNUMBER=%tracknr%" -T "GENRE=%genre%" -T "PERFORMER=%albuminterpret%" -T "COMPOSER=%composer%" %haslyrics%--tag-from-file=LYRICS="%lyricsfile%"%haslyrics% -T "ALBUMARTIST=%albumartist%" -T "ALBUM ARTIST=%albumartist%" -T "DISCNUMBER=%cdnumber%" -T "TOTALDISCS=%totalcds%" -T "TOTALTRACKS=%numtracks%" -T "COMMENT=ivo" %source% -o %dest%
TOC of the extracted CD
Track | Start | Length | Start sector | End sector
---------------------------------------------------------
1 | 0:00.00 | 9:26.18 | 0 | 42467
2 | 9:26.18 | 0:52.46 | 42468 | 46413
3 | 10:18.64 | 11:25.56 | 46414 | 97844
4 | 21:44.45 | 5:46.49 | 97845 | 123843
5 | 27:31.19 | 7:15.62 | 123844 | 156530
6 | 34:47.06 | 6:31.45 | 156531 | 185900
7 | 41:18.51 | 3:30.08 | 185901 | 201658
8 | 44:48.59 | 8:59.13 | 201659 | 242096
Track 1
Filename E:\igor\eac\01 - Carnet Plein d’Histoires.wav
Pre-gap length 0:00:02.00
Peak level 94.0 %
Extraction speed 5.3 X
Track quality 100.0 %
Test CRC 609C5DF0
Copy CRC 609C5DF0
Track not present in AccurateRip database
Copy OK
Track 2
Filename E:\igor\eac\02 - Dia de los Muertos.wav
Pre-gap length 0:00:03.00
Peak level 94.0 %
Extraction speed 3.7 X
Track quality 100.0 %
Test CRC EF376069
Copy CRC EF376069
Track not present in AccurateRip database
Copy OK
Track 3
Filename E:\igor\eac\03 - Feuertreppe.wav
Pre-gap length 0:00:04.00
Peak level 94.0 %
Extraction speed 6.6 X
Track quality 100.0 %
Test CRC DC982DAF
Copy CRC DC982DAF
Track not present in AccurateRip database
Copy OK
Track 4
Filename E:\igor\eac\04 - En Urgence.wav
Pre-gap length 0:00:03.00
Peak level 94.0 %
Extraction speed 7.0 X
Track quality 100.0 %
Test CRC BDFBFEEA
Copy CRC BDFBFEEA
Track not present in AccurateRip database
Copy OK
Track 5
Filename E:\igor\eac\05 - I Don’t Know Why, But This Morning....wav
Pre-gap length 0:00:04.00
Peak level 94.0 %
Extraction speed 7.6 X
Track quality 100.0 %
Test CRC 7FE9F395
Copy CRC 7FE9F395
Track not present in AccurateRip database
Copy OK
Track 6
Filename E:\igor\eac\06 - Ke Belle.wav
Pre-gap length 0:00:02.00
Peak level 83.8 %
Extraction speed 8.0 X
Track quality 100.0 %
Test CRC 115B7054
Copy CRC 115B7054
Track not present in AccurateRip database
Copy OK
Track 7
Filename E:\igor\eac\07 - Lance die Lanze.wav
Pre-gap length 0:00:02.00
Peak level 94.0 %
Extraction speed 7.7 X
Track quality 100.0 %
Test CRC 75257C40
Copy CRC 75257C40
Track not present in AccurateRip database
Copy OK
Track 8
Filename E:\igor\eac\08 - Sortir de la Colère.wav
Pre-gap length 0:00:03.00
Peak level 87.5 %
Extraction speed 8.3 X
Track quality 99.9 %
Test CRC 142623D7
Copy CRC 142623D7
Track not present in AccurateRip database
Copy OK
None of the tracks are present in the AccurateRip database
No errors occurred
End of status report
---- CUETools DB Plugin V2.1.4
[CTDB TOCID: 3QpjeoHOhVNU3YNz0M4Yy0nQ6V4-] disk not present in database
Submit result: 3QpjeoHOhVNU3YNz0M4Yy0nQ6V4- has been uploaded
==== Log checksum 74C9EAFEA7FF43AA87E08A2972034A88004BBAECC995270F96ED2384E0F583BE ====
 
.cue
REM GENRE "Clean Feed 283"
REM DATE 2013
REM DISCID 680C9B08
REM COMMENT "ExactAudioCopy v1.0b3"
PERFORMER "Pascal Niggenkemper Vision7"
TITLE "Lucky Prime"
FILE "01 - Carnet Plein d’Histoires.wav" WAVE
TRACK 01 AUDIO
TITLE "Carnet Plein d’Histoires"
PERFORMER "Pascal Niggenkemper Vision7"
INDEX 01 00:00:00
TRACK 02 AUDIO
TITLE "Dia de los Muertos"
PERFORMER "Pascal Niggenkemper Vision7"
INDEX 00 09:23:18
FILE "02 - Dia de los Muertos.wav" WAVE
INDEX 01 00:00:00
TRACK 03 AUDIO
TITLE "Feuertreppe"
PERFORMER "Pascal Niggenkemper Vision7"
INDEX 00 00:48:46
FILE "03 - Feuertreppe.wav" WAVE
INDEX 01 00:00:00
TRACK 04 AUDIO
TITLE "En Urgence"
PERFORMER "Pascal Niggenkemper Vision7"
INDEX 00 11:22:56
FILE "04 - En Urgence.wav" WAVE
INDEX 01 00:00:00
TRACK 05 AUDIO
TITLE "I Don’t Know Why, But This Morning..."
PERFORMER "Pascal Niggenkemper Vision7"
INDEX 00 05:42:49
FILE "05 - I Don’t Know Why, But This Morning....wav" WAVE
INDEX 01 00:00:00
TRACK 06 AUDIO
TITLE "Ke Belle"
PERFORMER "Pascal Niggenkemper Vision7"
INDEX 00 07:13:62
FILE "06 - Ke Belle.wav" WAVE
INDEX 01 00:00:00
TRACK 07 AUDIO
TITLE "Lance die Lanze"
PERFORMER "Pascal Niggenkemper Vision7"
INDEX 00 06:29:45
FILE "07 - Lance die Lanze.wav" WAVE
INDEX 01 00:00:00
TRACK 08 AUDIO
TITLE "Sortir de la Colиre"
PERFORMER "Pascal Niggenkemper Vision7"
INDEX 00 03:27:08
FILE "08 - Sortir de la Colиre.wav" WAVE
INDEX 01 00:00:00

http://www.discogs.com/Pascal-Niggenkemper-Vision7-Lucky-Prime/release/5602071
другие релизы
По всем вопросам пишите личное сообщение пользователю M0p94ok.
11:09
239
Нет комментариев. Ваш будет первым!