Вы используете незарегистрированную версию компонента "Вкладки"!

Поиск

(Avant-Garde Jazz, Free Improvisation) [CD] Soko Steidle (Oliver Steidle, Rudi Mahall, Johannes Fink, Henrik Walsdorff) - Reinkommen Und Rausholen - 2006, FLAC (tracks+.cue), lossless

(Avant-Garde Jazz, Free Improvisation) [CD] Soko Steidle (Oliver Steidle, Rudi Mahall, Johannes Fink, Henrik Walsdorff) - Reinkommen Und Rausholen - 2006, FLAC (tracks+.cue), lossless
Треклист:
Soko Steidle / Reinkommen Und Rausholen
Жанр: Avant-Garde Jazz, Free Improvisation
Носитель: CD
Страна-производитель диска (релиза): Germany
Год издания: 2006
Издатель (лейбл): Konnex Records
Номер по каталогу: KCD 5169
Аудиокодек: FLAC (*.flac)
Тип рипа: tracks+.cue
Битрейт аудио: lossless
Продолжительность: 54:25
Источник (релизер): cd
Наличие сканов в содержимом раздачи: нет
Треклист:
1. Reinkommen und... 19:10
2. Moltofil Man 3:55
3. Emser STR. 11:37
4. Hasenheide 10:58
5. Face Race 3:33
6. ...Alles Rausholen 5:09
 
Лог создания рипа
Exact Audio Copy V1.0 beta 3 from 29. August 2011
EAC extraction logfile from 11. April 2015, 15:39
Soko Steidle / Reinkommen Und Rausholen
Used drive : ASUS DRW-24F1ST a Adapter: 0 ID: 0
Read mode : Secure
Utilize accurate stream : Yes
Defeat audio cache : Yes
Make use of C2 pointers : No
Read offset correction : 6
Overread into Lead-In and Lead-Out : No
Fill up missing offset samples with silence : Yes
Delete leading and trailing silent blocks : No
Null samples used in CRC calculations : Yes
Used interface : Native Win32 interface for Win NT & 2000
Gap handling : Appended to previous track
Used output format : User Defined Encoder
Selected bitrate : 320 kBit/s
Quality : High
Add ID3 tag : No
Command line compressor : D:\Programs\Exact Audio Copy\Flac\flac.exe
Additional command line options : -V -8 -T "Genre=%genre%" -T "Artist=%artist%" -T "Title=%title%" -T "Album=%albumtitle%" -T "Date=%year%" -T "Tracknumber=%tracknr%" -T "Comment=%comment%" %source%
TOC of the extracted CD
Track | Start | Length | Start sector | End sector
---------------------------------------------------------
1 | 0:00.00 | 19:10.67 | 0 | 86316
2 | 19:10.67 | 3:55.39 | 86317 | 103980
3 | 23:06.31 | 11:37.20 | 103981 | 156275
4 | 34:43.51 | 10:58.19 | 156276 | 205644
5 | 45:41.70 | 3:33.48 | 205645 | 221667
6 | 49:15.43 | 5:09.35 | 221668 | 244877
Track 1
Filename D:\EAC\01 Reinkommen und....wav
Pre-gap length 0:00:02.00
Peak level 61.9 %
Extraction speed 5.5 X
Track quality 100.0 %
Test CRC 9AE05563
Copy CRC 9AE05563
Copy OK
Track 2
Filename D:\EAC\02 Moltofil Man.wav
Peak level 61.9 %
Extraction speed 6.0 X
Track quality 100.0 %
Test CRC 30F6A25A
Copy CRC 30F6A25A
Copy OK
Track 3
Filename D:\EAC\03 Emser STR.wav
Peak level 61.9 %
Extraction speed 7.2 X
Track quality 100.0 %
Test CRC DE73D909
Copy CRC DE73D909
Copy OK
Track 4
Filename D:\EAC\04 Hasenheide.wav
Peak level 61.9 %
Extraction speed 8.0 X
Track quality 100.0 %
Test CRC B34D916C
Copy CRC B34D916C
Copy OK
Track 5
Filename D:\EAC\05 Face Race.wav
Peak level 60.4 %
Extraction speed 7.5 X
Track quality 100.0 %
Test CRC E90C1C31
Copy CRC E90C1C31
Copy OK
Track 6
Filename D:\EAC\06 Alles Rausholen.wav
Peak level 47.1 %
Extraction speed 8.1 X
Track quality 100.0 %
Test CRC 91C6CE4B
Copy CRC 91C6CE4B
Copy OK
No errors occurred
End of status report
==== Log checksum D3DE120B8545F9CC604A403E17ABCB63ADFE8C295DB053E2A181F4AD22EBC3A4 ====
 
Содержание индексной карты (.CUE)
REM GENRE Jazz
REM DATE 2006
REM DISCID 550CC106
REM COMMENT "ExactAudioCopy v1.0b3"
PERFORMER "Soko Steidle"
TITLE "Reinkommen Und Rausholen"
FILE "01 Reinkommen und....wav" WAVE
TRACK 01 AUDIO
TITLE "Reinkommen und..."
PERFORMER "Soko Steidle"
FLAGS DCP
INDEX 01 00:00:00
FILE "02 Moltofil Man.wav" WAVE
TRACK 02 AUDIO
TITLE "Moltofil Man"
PERFORMER "Soko Steidle"
FLAGS DCP
INDEX 01 00:00:00
FILE "03 Emser STR.wav" WAVE
TRACK 03 AUDIO
TITLE "Emser STR"
PERFORMER "Soko Steidle"
FLAGS DCP
INDEX 01 00:00:00
FILE "04 Hasenheide.wav" WAVE
TRACK 04 AUDIO
TITLE "Hasenheide"
PERFORMER "Soko Steidle"
FLAGS DCP
INDEX 01 00:00:00
FILE "05 Face Race.wav" WAVE
TRACK 05 AUDIO
TITLE "Face Race"
PERFORMER "Soko Steidle"
FLAGS DCP
INDEX 01 00:00:00
FILE "06 Alles Rausholen.wav" WAVE
TRACK 06 AUDIO
TITLE "Alles Rausholen"
PERFORMER "Soko Steidle"
FLAGS DCP
INDEX 01 00:00:00
Доп. информация: Recording Dates:
Tracks 1 & 6: in Stalsund, July '05
Track 2 at BR, March '04
Tracks 3 to 5 at Studio 24, April '04
 
Состав
Alto Saxophone – Henrik Walsdorff
Bass – Johannes Fink
Bass Clarinet – Rudi Mahall
Drums – Oliver Steidle
По всем вопросам пишите личное сообщение пользователю M0p94ok.
11:09
252
Нет комментариев. Ваш будет первым!