Поиск

(Free Jazz / CIMP) Evan Parker / Barry Guy / Paul Lytton - The Redwood Session ( with guest, Joe McPhee ) - 1996, FLAC (tracks+.cue), lossless

(Free Jazz / CIMP) Evan Parker / Barry Guy / Paul Lytton - The Redwood Session ( with guest, Joe McPhee ) - 1996, FLAC (tracks+.cue), lossless
Треклист:
Evan Parker / Barry Guy / Paul Lytton - The Redwood Session ( with guest, Joe McPhee )
Жанр: Free Jazz / CIMP
Год выпуска диска: 1996
Производитель диска: CIMP (CIMP #101; USA)
Аудио кодек: FLAC
Тип рипа: tracks+.cue
Битрейт аудио: lossless
Продолжительность: 00:59:07
Трэклист:
01. Not Yet
02. The Masks
03. Craig's Story
04. Pedal (for Warren)
05. Then Paul Saw The Snake (for Susan) - with Joe McPhee
Performers:
Evan Parker, soprano and tenor saxophones;
Barry Guy, double bass;
Paul Lytton, drums, percussion;
with Guest:
Joe McPhee, trumpet on last track.
Recorded on 18 June 1995 at The Spirit Room, Rossie, NY.
Доп. информация:
Рип: Найдено в сети ... thanks! / спасибо, grasprelease ... качественные скэны внутри раздачи
Хороший альбомчик!
CIMP Info:
 
скрытый текст
The Redwood Session
Catalog Number: CIMP 101
In June, the trio, along with their energizing promoter Maya Homburger (an accomplished musician in her own right), spent four days of rest and invention at the Cadence Building. During that time they acclimated after a transatlantic flight, hiked, ate, read, ate, played waterball, ate, and in general made themselves at home in an environment that welcomed them. During this time they also performed an informal concert with a few invited guests. Northern New York, at the time, was at the beginning of a summer-long heat wave and by 7 p.m., when the session began, the temperature was 80°. For sound considerations, fans had to be turned off or moved out of hearing range, windows remained open, inviting the area's abundant bird population to sing themselves into digital immortality. The room quieted and I introduced and welcomed the group to The Spirit Room. Acknowledged, the triowelcomed us with Not Yet. The first set ended over two hours later, the sun had set but the temperature had cooled little in the still air. After some wandering, refreshments, and congenial intermingling, Evan called a second set which was brief, provided continued energy but little heat. The band again called an intermission perhaps in an attempt to regenerate. At this point, Evan Parker turned to Joe McPhee (who had recently finished a tour in Europe with Parker and had driven almost 300 miles to hear this session) and asked him if he had brought his instruments and would he like to join thethird set. Half an hour later Parker, Guy, Lytton, and McPhee took their places and in a diffuse dimness ripped off a jam they titled Then Paul saw the Snake (for Susan), a tribute to a nurturing and an accomplished cook who resides in the area.
After the evening's music, Joe McPhee took me asideand said, This is amazing. This is the real deal. It doesn't happen that often. It was a special time and what you have here is some of the best of it.
Robert D. Rusch
EAC Log
 
скрытый текст
EAC extraction logfile from 13. June 2008, 2:08 for CD
Evan Parker - Barry Guy - Paul Lytton / The Redwood Session
Used drive : HL-DT-STDVDRAM GSA-H10N Adapter: 3 ID: 1
Read mode : Secure with NO C2, accurate stream, disable cache
Read offset correction : 667
Overread into Lead-In and Lead-Out : No
Used output format : C:\Archivos de programa\FLAC\flac.exe (User Defined Encoder)
320 kBit/s
Additional command line options : -8 -V -T "artist=%a" -T "title=%t" -T "album=%g" -T "date=%y" -T "tracknumber=%n" -T "genre=%m" %s
Other options :
Fill up missing offset samples with silence : Yes
Delete leading and trailing silent blocks : No
Installed external ASPI interface
Track 1
Filename C:\Parker.Guy.Lytton - The Redwood Session (1995)[Flac]{CIMP 101}\01 - Not Yet.wav
Pre-gap length 0:00:02.00
Peak level 100.0 %
Track quality 99.9 %
Test CRC BEC956FD
Copy CRC BEC956FD
Copy OK
Track 2
Filename C:\Parker.Guy.Lytton - The Redwood Session (1995)[Flac]{CIMP 101}\02 - The Masks.wav
Pre-gap length 0:00:01.45
Peak level 91.6 %
Track quality 100.0 %
Test CRC 5001F468
Copy CRC 5001F468
Copy OK
Track 3
Filename C:\Parker.Guy.Lytton - The Redwood Session (1995)[Flac]{CIMP 101}\03 - Craig's Story.wav
Pre-gap length 0:00:01.45
Peak level 94.4 %
Track quality 99.9 %
Test CRC 01C984E6
Copy CRC 01C984E6
Copy OK
Track 4
Filename C:\Parker.Guy.Lytton - The Redwood Session (1995)[Flac]{CIMP 101}\04 - Pedal (for Warren).wav
Pre-gap length 0:00:01.45
Peak level 41.1 %
Track quality 100.0 %
Test CRC 3ECC0040
Copy CRC 3ECC0040
Copy OK
Track 5
Filename C:\Parker.Guy.Lytton - The Redwood Session (1995)[Flac]{CIMP 101}\05 - Then Paul Saw The Snake (for Susan) - with Joe McPhee.wav
Pre-gap length 0:00:01.45
Peak level 100.0 %
Track quality 100.0 %
Test CRC 62481D80
Copy CRC 62481D80
Copy OK
No errors occured
End of status report
CUE
 
скрытый текст
Код:
REM GENRE Jazz
REM DATE 1995
REM DISCID 420DDB05
REM COMMENT "ExactAudioCopy v0.95b4"
PERFORMER "Evan Parker - Barry Guy - Paul Lytton"
TITLE "The Redwood Session"
FILE "01 - Not Yet.wav" WAVE
  TRACK 01 AUDIO
    TITLE "Not Yet"
    PERFORMER "Evan Parker - Barry Guy - Paul Lytton"
    FLAGS DCP
    INDEX 01 00:00:00
  TRACK 02 AUDIO
    TITLE "The Masks"
    PERFORMER "Evan Parker - Barry Guy - Paul Lytton"
    FLAGS DCP
    INDEX 00 12:45:34
FILE "02 - The Masks.wav" WAVE
    INDEX 01 00:00:00
  TRACK 03 AUDIO
    TITLE "Craig's Story"
    PERFORMER "Evan Parker - Barry Guy - Paul Lytton"
    FLAGS DCP
    INDEX 00 10:46:24
FILE "03 - Craig's Story.wav" WAVE
    INDEX 01 00:00:00
  TRACK 04 AUDIO
    TITLE "Pedal (for Warren)"
    PERFORMER "Evan Parker - Barry Guy - Paul Lytton"
    FLAGS DCP
    INDEX 00 14:09:09
FILE "04 - Pedal (for Warren).wav" WAVE
    INDEX 01 00:00:00
  TRACK 05 AUDIO
    TITLE "Then Paul Saw The Snake (for Susan) - with Joe McPhee"
    PERFORMER "Evan Parker - Barry Guy - Paul Lytton"
    FLAGS DCP
    INDEX 00 09:21:06
FILE "05 - Then Paul Saw The Snake (for Susan) - with Joe McPhee.wav" WAVE
    INDEX 01 00:00:00
По всем вопросам пишите личное сообщение пользователю M0p94ok.
22:36
203
Нет комментариев. Ваш будет первым!