Вы используете незарегистрированную версию компонента "Вкладки"!

Поиск

(Free Improvisation) John Butcher, Rhodri Davies – Carliol - 2010, FLAC (tracks+.cue), lossless

Треклист:
John Butcher, Rhodri Davies – Carliol
Жанр: Free Improvisation
Год выпуска диска: 2010
Производитель диска: Ftarri
Аудио кодек: FLAC
Тип рипа: tracks+.cue
Битрейт аудио: lossless
Источник: СЕТъ
Продолжительность: 44:32
Трэклист:
01. Pandon Bank
02. Losh
03. Gallow Gate
04. Scrogg
05. Ouse Poppy
06. Garth Heads
07. Distant Leazes
John Butcher: tenor or soprano saxophones – plus feedback, motors, embedded harp speaker
Rhodri Davies: pedal harp, lever harp with embedded speaker and electric harp. Aeolian electric harp
Recorded Newcastle, London, Crear
Доп. информация:
 
скрытый текст
A wonderful set. As has generally been the case in recent years, the nature of their respective instruments, saxophone and harp, is almost entirely disguised, replaced by electronic tones, shudders and pings. More to the point, they’re paced beautifully, with great care assigned to timbre, volume and blending with each other. Butcher uses motors here a few times, presumably in his bell (?), heard to nice effect on “gallow gate”, all rapid clicks, like a mouse wearing metal sneakers is scurrying around his horn. Some of Davies’ more recent work has verged on the excessively ambient for my taste, but here there’s precisely the right amount of sand in the mix, not a trace of wooziness. The lengthier of the seven tracks, around nine to ten minutes, are especially rich; could’ve gone on longer. Even the Parker-esque explosion of sputters that Butcher lets loose on the final cut (an asynchronously recorded one) are well-positioned against Davies’ shimmers, the latter derived from an aeolian harp; here, two elements that might normally trouble me are juxtaposed so as to cancel out each others’ potentially aggravating characteristics (aggravating to me, that is)–rather fascinating how that works.
 
CUE
TITLE "Carliol"
PERFORMER "John Butcher/Rhodri Davies"
REM GENRE "EAI"
REM DATE 2010
FILE "01 - Pandon Bank.wav" WAVE
TRACK 01 AUDIO
TITLE "Pandon Bank"
INDEX 01 00:00:00
TRACK 02 AUDIO
TITLE "Losh"
INDEX 00 09:17:27
FILE "02 - Losh.wav" WAVE
INDEX 01 00:00:00
TRACK 03 AUDIO
TITLE "Gallow Gate"
INDEX 00 05:01:14
FILE "03 - Gallow Gate.wav" WAVE
INDEX 01 00:00:00
TRACK 04 AUDIO
TITLE "Scrogg"
INDEX 00 03:16:47
FILE "04 - Scrogg.wav" WAVE
INDEX 01 00:00:00
TRACK 05 AUDIO
TITLE "Ouse Poppy"
INDEX 00 01:58:03
FILE "05 - Ouse Poppy.wav" WAVE
INDEX 01 00:00:00
TRACK 06 AUDIO
TITLE "Garth Heads"
INDEX 00 09:17:23
FILE "06 - Garth Heads.wav" WAVE
INDEX 01 00:00:00
TRACK 07 AUDIO
TITLE "Distant Leazes"
INDEX 00 05:44:48
FILE "07 - Distant Leazes.wav" WAVE
INDEX 01 00:00:00
 
XLD extraction logfile
X Lossless Decoder version 20100505 (119.1)
XLD extraction logfile from 2010-05-07 11:08:38 -0700
John Butcher/Rhodri Davies / Carliol
Used drive : MATSHITA DVD-R UJ-857D (revision KCV9)
Use cdparanoia mode : YES (CDParanoia III 10.2 engine)
Disable audio cache : OK for the drive with cache less than 2750KB
Make use of C2 pointers : NO
Read offset correction : 102
Max retry count : 100
TOC of the extracted CD
Track | Start | Length | Start sector | End sector
---------------------------------------------------------
1 | 00:00:00 | 09:21:27 | 0 | 42101
2 | 09:21:27 | 05:05:14 | 42102 | 64990
3 | 14:26:41 | 03:21:47 | 64991 | 80112
4 | 17:48:13 | 02:02:03 | 80113 | 89265
5 | 19:50:16 | 09:21:23 | 89266 | 131363
6 | 29:11:39 | 05:46:48 | 131364 | 157361
7 | 34:58:12 | 09:33:52 | 157362 | 200388
Track 01
Filename : /Users/texturizer/Desktop/01 - Pandon Bank.flac
/Users/texturizer/Desktop/01 - Pandon Bank.mp3
Pre-gap length : 00:02:00
CRC32 hash (test run) : DE2008A8
CRC32 hash : DE2008A8
CRC32 hash (skip zero) : FDDDA7C8
AccurateRip signature : 4D9F29D7
->Track not present in AccurateRip database.
Statistics
Read error : 0
Skipped (treated as error) : 0
Edge jitter error (maybe fixed) : 0
Atom jitter error (maybe fixed) : 0
Drift error (maybe fixed) : 0
Dropped bytes error (maybe fixed) : 0
Duplicated bytes error (maybe fixed) : 0
Track 02
Filename : /Users/texturizer/Desktop/02 - Losh.flac
/Users/texturizer/Desktop/02 - Losh.mp3
Pre-gap length : 00:04:00
CRC32 hash (test run) : EEA182DD
CRC32 hash : EEA182DD
CRC32 hash (skip zero) : E85839DB
AccurateRip signature : 4B6933F1
->Track not present in AccurateRip database.
Statistics
Read error : 0
Skipped (treated as error) : 0
Edge jitter error (maybe fixed) : 0
Atom jitter error (maybe fixed) : 0
Drift error (maybe fixed) : 0
Dropped bytes error (maybe fixed) : 0
Duplicated bytes error (maybe fixed) : 0
Track 03
Filename : /Users/texturizer/Desktop/03 - Gallow Gate.flac
/Users/texturizer/Desktop/03 - Gallow Gate.mp3
Pre-gap length : 00:04:00
CRC32 hash (test run) : C9868AC4
CRC32 hash : C9868AC4
CRC32 hash (skip zero) : 449EC2E9
AccurateRip signature : E96627DA
->Track not present in AccurateRip database.
Statistics
Read error : 0
Skipped (treated as error) : 0
Edge jitter error (maybe fixed) : 0
Atom jitter error (maybe fixed) : 0
Drift error (maybe fixed) : 0
Dropped bytes error (maybe fixed) : 0
Duplicated bytes error (maybe fixed) : 0
Track 04
Filename : /Users/texturizer/Desktop/04 - Scrogg.flac
/Users/texturizer/Desktop/04 - Scrogg.mp3
Pre-gap length : 00:05:00
CRC32 hash (test run) : B1FF7448
CRC32 hash : B1FF7448
CRC32 hash (skip zero) : DF14C6B5
AccurateRip signature : 67AC0DC4
->Track not present in AccurateRip database.
Statistics
Read error : 0
Skipped (treated as error) : 0
Edge jitter error (maybe fixed) : 0
Atom jitter error (maybe fixed) : 0
Drift error (maybe fixed) : 0
Dropped bytes error (maybe fixed) : 0
Duplicated bytes error (maybe fixed) : 0
Track 05
Filename : /Users/texturizer/Desktop/05 - Ouse Poppy.flac
/Users/texturizer/Desktop/05 - Ouse Poppy.mp3
Pre-gap length : 00:04:00
CRC32 hash (test run) : A21F7F05
CRC32 hash : A21F7F05
CRC32 hash (skip zero) : F5955244
AccurateRip signature : 2020456A
->Track not present in AccurateRip database.
Statistics
Read error : 0
Skipped (treated as error) : 0
Edge jitter error (maybe fixed) : 2
Atom jitter error (maybe fixed) : 1
Drift error (maybe fixed) : 0
Dropped bytes error (maybe fixed) : 1
Duplicated bytes error (maybe fixed) : 1
Track 06
Filename : /Users/texturizer/Desktop/06 - Garth Heads.flac
/Users/texturizer/Desktop/06 - Garth Heads.mp3
Pre-gap length : 00:04:00
CRC32 hash (test run) : 1346D390
CRC32 hash : 1346D390
CRC32 hash (skip zero) : B2F1E0E9
AccurateRip signature : 255E181B
->Track not present in AccurateRip database.
Statistics
Read error : 0
Skipped (treated as error) : 0
Edge jitter error (maybe fixed) : 0
Atom jitter error (maybe fixed) : 0
Drift error (maybe fixed) : 0
Dropped bytes error (maybe fixed) : 0
Duplicated bytes error (maybe fixed) : 0
Track 07
Filename : /Users/texturizer/Desktop/07 - Distant Leazes.flac
/Users/texturizer/Desktop/07 - Distant Leazes.mp3
Pre-gap length : 00:02:00
CRC32 hash (test run) : 446798C0
CRC32 hash : 446798C0
CRC32 hash (skip zero) : 2C883444
AccurateRip signature : AD305216
->Track not present in AccurateRip database.
Statistics
Read error : 0
Skipped (treated as error) : 0
Edge jitter error (maybe fixed) : 0
Atom jitter error (maybe fixed) : 0
Drift error (maybe fixed) : 0
Dropped bytes error (maybe fixed) : 0
Duplicated bytes error (maybe fixed) : 0
No errors occurred
End of status report
выложил ivan_buratino, спасибо.
По всем вопросам пишите личное сообщение пользователю M0p94ok.
22:36
145
Нет комментариев. Ваш будет первым!