Вы используете незарегистрированную версию компонента "Вкладки"!

Поиск

(Free Jazz, Chamber Jazz) Ta Lam 11 (Gebhard Ullman, Hinrich Beermann, Daniel Erdmann, Vladimir Karparov, Juergen Kupke, Volker Schlott, Joachim Litty, Heiner Reinhardt, Michael Thieke, etc.) - Mingus! - 2011, FLAC (tracks+.cue), lossless

(Free Jazz, Chamber Jazz) Ta Lam 11 (Gebhard Ullman, Hinrich Beermann, Daniel Erdmann, Vladimir Karparov, Juergen Kupke, Volker Schlott, Joachim Litty, Heiner Reinhardt, Michael Thieke, etc.) - Mingus! - 2011, FLAC (tracks+.cue), lossless
Треклист:
Tá Lam 11 / Mingus!
Жанр: Free Jazz, Chamber Jazz
Страна-производитель диска: Germany
Год издания диска: 2011
Издатель (лейбл): jazzwerkstatt
Номер по каталогу: jw105
Аудиокодек: FLAC (*.flac)
Тип рипа: tracks+.cue
Битрейт аудио: lossless
Продолжительность: 1:01:33
Источник (релизер): CD
Наличие сканов в содержимом раздачи: да
Треклист:
1. Canon (5:57)
2. Wednesday Night Prayer Meeting / Boogie Stop Shuffle (8:28)
3. Fables Of Faubus (12:58)
4. Eclipse (7:09)
5. Jelly Roll (6:50)
6. Self-Portrait In Three Colors (7:23)
7. Nostalgia In Times Square (8:25)
8. Reincarnation Of A Lovebird (4:22)
 
Лог создания рипа
Exact Audio Copy V1.0 beta 2 from 29. April 2011
EAC extraction logfile from 18. November 2011, 16:20
Gebhard Ullmann / Tá Lam 11 / Mingus!
Used drive : Optiarc DVD RW AD-7240S Adapter: 2 ID: 0
Read mode : Secure
Utilize accurate stream : Yes
Defeat audio cache : Yes
Make use of C2 pointers : No
Read offset correction : 48
Overread into Lead-In and Lead-Out : No
Fill up missing offset samples with silence : Yes
Delete leading and trailing silent blocks : No
Null samples used in CRC calculations : Yes
Used interface : Native Win32 interface for Win NT & 2000
Gap handling : Appended to previous track
Used output format : User Defined Encoder
Selected bitrate : 768 kBit/s
Quality : High
Add ID3 tag : No
Command line compressor : C:\Program Files\Exact Audio Copy\FLAC\FLAC.EXE
Additional command line options : -6 -V -T "ARTIST=%artist%" -T "TITLE=%title%" -T "ALBUM=%albumtitle%" -T "DATE=%year%" -T "TRACKNUMBER=%tracknr%" -T "GENRE=%genre%" -T "COMMENT=%comment%" -T "BAND=%albuminterpret%" -T "COMPOSER=%composer%" %haslyrics%--ta
TOC of the extracted CD
Track | Start | Length | Start sector | End sector
---------------------------------------------------------
1 | 0:00.00 | 5:57.30 | 0 | 26804
2 | 5:57.30 | 8:28.12 | 26805 | 64916
3 | 14:25.42 | 12:58.09 | 64917 | 123275
4 | 27:23.51 | 7:09.11 | 123276 | 155461
5 | 34:32.62 | 6:50.34 | 155462 | 186245
6 | 41:23.21 | 7:23.35 | 186246 | 219505
7 | 48:46.56 | 8:24.61 | 219506 | 257366
8 | 57:11.42 | 4:21.57 | 257367 | 276998
Track 1
Filename C:\Ta Lam 11 (2011) - Mingus!\01 Canon.wav
Pre-gap length 0:00:02.00
Peak level 85.1 %
Extraction speed 2.5 X
Track quality 100.0 %
Test CRC E3396029
Copy CRC E3396029
Track not present in AccurateRip database
Copy OK
Track 2
Filename C:\Ta Lam 11 (2011) - Mingus!\02 Wednesday Night Prayer Meeting + Boogie Stop Shuffle.wav
Peak level 96.6 %
Extraction speed 3.0 X
Track quality 100.0 %
Test CRC AF57D495
Copy CRC AF57D495
Track not present in AccurateRip database
Copy OK
Track 3
Filename C:\Ta Lam 11 (2011) - Mingus!\03 Fables of Faubus.wav
Peak level 96.6 %
Extraction speed 3.6 X
Track quality 100.0 %
Test CRC ADD2652B
Copy CRC ADD2652B
Track not present in AccurateRip database
Copy OK
Track 4
Filename C:\Ta Lam 11 (2011) - Mingus!\04 Eclipse.wav
Peak level 96.6 %
Extraction speed 4.0 X
Track quality 100.0 %
Test CRC AF7FBC77
Copy CRC AF7FBC77
Track not present in AccurateRip database
Copy OK
Track 5
Filename C:\Ta Lam 11 (2011) - Mingus!\05 Jelly Roll.wav
Peak level 96.6 %
Extraction speed 4.3 X
Track quality 100.0 %
Test CRC 84734F6D
Copy CRC 84734F6D
Track not present in AccurateRip database
Copy OK
Track 6
Filename C:\Ta Lam 11 (2011) - Mingus!\06 Self-Portrait in Three Colors.wav
Peak level 95.7 %
Extraction speed 3.6 X
Track quality 99.9 %
Test CRC 1D6233AA
Copy CRC 1D6233AA
Track not present in AccurateRip database
Copy OK
Track 7
Filename C:\Ta Lam 11 (2011) - Mingus!\07 Nostalgia in Times Square.wav
Peak level 96.6 %
Extraction speed 4.9 X
Track quality 100.0 %
Test CRC 0F513F53
Copy CRC 0F513F53
Track not present in AccurateRip database
Copy OK
Track 8
Filename C:\Ta Lam 11 (2011) - Mingus!\08 Reincarnation of a Lovebird.wav
Peak level 44.6 %
Extraction speed 4.8 X
Track quality 100.0 %
Test CRC F1DB2495
Copy CRC F1DB2495
Track not present in AccurateRip database
Copy OK
None of the tracks are present in the AccurateRip database
No errors occurred
End of status report
==== Log checksum DD5D01ED9CF8B1497B2DB63EF24BD4C5D9EBD061ACB5B03C25E926E732D3C352 ====
 
Содержание индексной карты (.CUE)
REM GENRE Jazz
REM DATE 2011
REM DISCID 7A0E6D08
REM COMMENT "ExactAudioCopy v1.0b2"
PERFORMER "Gebhard Ullmann"
TITLE "Ta Lam 11 / Mingus!"
FILE "01 Canon.wav" WAVE
TRACK 01 AUDIO
TITLE "Canon"
PERFORMER "Gebhard Ullmann"
INDEX 01 00:00:00
FILE "02 Wednesday Night Prayer Meeting + Boogie Stop Shuffle.wav" WAVE
TRACK 02 AUDIO
TITLE "Wednesday Night Prayer Meeting + Boogie Stop Shuffle"
PERFORMER "Gebhard Ullmann"
INDEX 01 00:00:00
FILE "03 Fables of Faubus.wav" WAVE
TRACK 03 AUDIO
TITLE "Fables of Faubus"
PERFORMER "Gebhard Ullmann"
INDEX 01 00:00:00
FILE "04 Eclipse.wav" WAVE
TRACK 04 AUDIO
TITLE "Eclipse"
PERFORMER "Gebhard Ullmann"
INDEX 01 00:00:00
FILE "05 Jelly Roll.wav" WAVE
TRACK 05 AUDIO
TITLE "Jelly Roll"
PERFORMER "Gebhard Ullmann"
INDEX 01 00:00:00
FILE "06 Self-Portrait in Three Colors.wav" WAVE
TRACK 06 AUDIO
TITLE "Self-Portrait in Three Colors"
PERFORMER "Gebhard Ullmann"
INDEX 01 00:00:00
FILE "07 Nostalgia in Times Square.wav" WAVE
TRACK 07 AUDIO
TITLE "Nostalgia in Times Square"
PERFORMER "Gebhard Ullmann"
INDEX 01 00:00:00
FILE "08 Reincarnation of a Lovebird.wav" WAVE
TRACK 08 AUDIO
TITLE "Reincarnation of a Lovebird"
PERFORMER "Gebhard Ullmann"
INDEX 01 00:00:00
 
Доп. информация
Recorded March 24/25, 2010 at the RBB Studios, Berlin.
 
Об альбоме (сборнике)
Gebhard Ullman pays homage to Charles Mingus in a ten piece horn plus accordion orchestra, orchestrating and re-imagining 8 essential Mingus pieces into Ullman's vision. The resulting album is exultant, moody, and an absolutely impressive take on the great American composer's music.
 
Состав
Gebhard Ullman - bass clarinet, sorpano saxophone
Hinrich Beermann - baritone saxophone
Daniel Erdmann - tenor saxophone
Vladimir Karparov - tenor saxophone
Juergen Kupke - clarinet
Volker Schlott - alto saxophone, soprano saxophone
Joachim Litty - bass clarinet
Heiner Reinhardt - bass clarinet
Michael Thieke - clarinet, alto clarinet
Benjamin Weidekamp - alto saxophone, clarinet
Hans Hassler - accordion
Any questions -> support@pro-jazz.com. По всем вопросам пишите -> support@pro-jazz.com
18:30
176
Нет комментариев. Ваш будет первым!