Вы используете незарегистрированную версию компонента "Вкладки"!

Поиск

(Avant-Garde Jazz, Big Band, British Jazz) Mike Westbrook (The Westbrook Blake) - Bright As Fire (Settings Of William Blake) - 1980, FLAC (tracks+.cue), lossless

Треклист:
Mike Westbrook (The Westbrook Blake) / Bright As Fire (Settings Of William Blake)
Жанр: Avant-Garde Jazz, Big Band, British Jazz
Страна-производитель диска: UK
Год издания диска: 1991
Издатель (лейбл): Impetus Records
Номер по каталогу: IMP CD 18013
Страна: UK
Аудиокодек: FLAC (*.flac)
Тип рипа: tracks+.cue
Битрейт аудио: lossless
Продолжительность: 43:24
Источник (релизер): Demonoid
Наличие сканов в содержимом раздачи: нет
Треклист:
01 - The Fields
02 - I See Thy Form
03 - London Song
04 - A Posion Tree
05 - Holy Thursday
06 - Let The Slave
 
Лог создания рипа
Exact Audio Copy V1.0 beta 3 from 29. August 2011
EAC extraction logfile from 12. November 2011, 8:07
Mike Westbrook / The Westbrook Blake
Used drive : ATAPI DVD A DH16ABSH Adapter: 2 ID: 1
Read mode : Secure
Utilize accurate stream : Yes
Defeat audio cache : Yes
Make use of C2 pointers : No
Read offset correction : 6
Overread into Lead-In and Lead-Out : No
Fill up missing offset samples with silence : Yes
Delete leading and trailing silent blocks : No
Null samples used in CRC calculations : Yes
Used interface : Native Win32 interface for Win NT & 2000
Gap handling : Appended to previous track
Used output format : User Defined Encoder
Selected bitrate : 768 kBit/s
Quality : High
Add ID3 tag : No
Command line compressor : C:\Program Files (x86)\Exact Audio Copy\FLAC\FLAC.EXE
Additional command line options : -6 -V -T "ARTIST=%artist%" -T "TITLE=%title%" -T "ALBUM=%albumtitle%" -T "DATE=%year%" -T "TRACKNUMBER=%tracknr%" -T "GENRE=%genre%" -T "COMMENT=%comment%" -T "BAND=%albuminterpret%" -T "ALBUMARTIST=%albuminterpret%" -T "COMPOSER=%composer%" %haslyrics%--tag-from-file=LYRICS="%lyricsfile%"%haslyrics% -T "DISCNUMBER=%cdnumber%" -T "TOTALDISCS=%totalcds%" -T "TOTALTRACKS=%numtracks%" %hascover%--picture="%coverfile%"%hascover% %source% -o %dest%
TOC of the extracted CD
Track | Start | Length | Start sector | End sector
---------------------------------------------------------
1 | 0:00.00 | 5:39.35 | 0 | 25459
2 | 5:39.35 | 3:59.12 | 25460 | 43396
3 | 9:38.47 | 7:14.25 | 43397 | 75971
4 | 16:52.72 | 2:32.55 | 75972 | 87426
5 | 19:25.52 | 15:04.55 | 87427 | 155281
6 | 34:30.32 | 8:53.43 | 155282 | 195299
Track 1
Filename C:\Users\owner\Uploads\Demonoid\Mike Westbrook - The Westbrook Blake (1980) [FLAC]\01 - The Fields.wav
Pre-gap length 0:00:02.00
Peak level 97.7 %
Extraction speed 4.0 X
Track quality 100.0 %
Test CRC 27A0CBF7
Copy CRC 27A0CBF7
Track not present in AccurateRip database
Copy OK
Track 2
Filename C:\Users\owner\Uploads\Demonoid\Mike Westbrook - The Westbrook Blake (1980) [FLAC]\02 - I See Thy Form.wav
Peak level 97.4 %
Extraction speed 4.2 X
Track quality 100.0 %
Test CRC 6A4709DE
Copy CRC 6A4709DE
Track not present in AccurateRip database
Copy OK
Track 3
Filename C:\Users\owner\Uploads\Demonoid\Mike Westbrook - The Westbrook Blake (1980) [FLAC]\03 - London Song.wav
Peak level 100.0 %
Extraction speed 5.0 X
Track quality 100.0 %
Test CRC 62E12AB3
Copy CRC 62E12AB3
Track not present in AccurateRip database
Copy OK
Track 4
Filename C:\Users\owner\Uploads\Demonoid\Mike Westbrook - The Westbrook Blake (1980) [FLAC]\04 - A Poison Tree.wav
Peak level 97.7 %
Extraction speed 3.3 X
Track quality 99.9 %
Test CRC E913F706
Copy CRC E913F706
Track not present in AccurateRip database
Copy OK
Track 5
Filename C:\Users\owner\Uploads\Demonoid\Mike Westbrook - The Westbrook Blake (1980) [FLAC]\05 - Holy Thursday.wav
Peak level 95.5 %
Extraction speed 6.0 X
Track quality 100.0 %
Test CRC 8163DD47
Copy CRC 8163DD47
Track not present in AccurateRip database
Copy OK
Track 6
Filename C:\Users\owner\Uploads\Demonoid\Mike Westbrook - The Westbrook Blake (1980) [FLAC]\06 - Let The Slave.wav
Peak level 95.5 %
Extraction speed 6.7 X
Track quality 100.0 %
Test CRC A1699A77
Copy CRC A1699A77
Track not present in AccurateRip database
Copy OK
None of the tracks are present in the AccurateRip database
No errors occurred
End of status report
==== Log checksum 238B127786556FEA65A558B9B63130160062051561066CA7A481DD00ED2A605C ====
 
Содержание индексной карты (.CUE)
REM DISCID 370A2C06
REM COMMENT "ExactAudioCopy v1.0b3"
PERFORMER "Mike Westbrook"
TITLE "The Westbrook Blake"
FILE "01 - The Fields.wav" WAVE
TRACK 01 AUDIO
TITLE "The Fields"
PERFORMER "Mike Westbrook"
INDEX 01 00:00:00
FILE "02 - I See Thy Form.wav" WAVE
TRACK 02 AUDIO
TITLE "I See Thy Form"
PERFORMER "Mike Westbrook"
INDEX 01 00:00:00
FILE "03 - London Song.wav" WAVE
TRACK 03 AUDIO
TITLE "London Song"
PERFORMER "Mike Westbrook"
INDEX 01 00:00:00
FILE "04 - A Poison Tree.wav" WAVE
TRACK 04 AUDIO
TITLE "A Poison Tree"
PERFORMER "Mike Westbrook"
INDEX 01 00:00:00
FILE "05 - Holy Thursday.wav" WAVE
TRACK 05 AUDIO
TITLE "Holy Thursday"
PERFORMER "Mike Westbrook"
INDEX 01 00:00:00
FILE "06 - Let The Slave.wav" WAVE
TRACK 06 AUDIO
TITLE "Let The Slave"
PERFORMER "Mike Westbrook"
INDEX 01 00:00:00
 
Лог проверки качества
d:\>d:\aucdtect -d/-m0 d:\zzz\*.wav
auCDtect: CD records authenticity detector, version 0.8.2
Copyright (c) 2004 Oleg Berngardt. All rights reserved.
Copyright (c) 2004 Alexander Djourik. All rights reserved.
------------------------------------------------------------
Processing file: [01. The Fields.wav]
------------------------------------------------------------
This track looks like CDDA with probability 100%
------------------------------------------------------------
Processing file: [02. I See Thy Form.wav]
------------------------------------------------------------
This track looks like CDDA with probability 100%
------------------------------------------------------------
Processing file: [03. London Song.wav]
------------------------------------------------------------
This track looks like CDDA with probability 100%
------------------------------------------------------------
Processing file: [04. A Poison Tree.wav]
------------------------------------------------------------
This track looks like CDDA with probability 100%
------------------------------------------------------------
Processing file: [05. Holy Thursday.wav]
------------------------------------------------------------
This track looks like CDDA with probability 100%
------------------------------------------------------------
Processing file: [06. Let The Slave.wav]
------------------------------------------------------------
This track looks like CDDA with probability 99%
------------------------------------------------------------
Final Conclusion:
------------------------------------------------------------
These tracks looks like CDDA with probability 100%
Доп. информация:
 
Reviews
"...Arguably the most majestic work to appear in recent years. It's marriage of Inspirational lyrics and uplifting scoring, performed by some of the most talented musicians in Europe, harks back to the jazz suites of Ellington..."
THE GUARDIAN
"Mike Westbrook makes full use of his two striking vocalists, Kate Westbrook and Phil Minton, and coaxes fervent performances from horn men Chris Biscoe and Alan Wakeman. He finds music to snatch the ecstasy of 'I See Thy Form' and desolation of 'London Song', turns 'A Poison Tree' into a blood-curdling tango. and fashions a magnificent anthem for 'Let The Slave/The Price of Experience' , Blake's great paeans to freedom, dignity, and compassion."
THE WIRE
"Perhaps the greatest work in all British jazz"
INDEPENDENT ON SUNDAY.
"Westbrook's settings are among the greatest British music of the century...bold, optimistic and inspiring".
THE INDEPENDENT.
"Bright as Fire pulls no emotional punches, Blake's visionary words matched by some of Westbrook's most trenchant writing".
Alyn Shipton - The Times
"It's one of the great fortuitous yokings together of the century: Blake's forthright lyrics, and Westbrook's English-Ellington music, the words brilliantly sung by Kate Westbrook and Phil Minton and accompanied by a septet with three great sax players in Peter Whyman, Chris Biscoe and Alan Wakeman".
Phil Johnson - THE INDEPENDENT
 
Состав
Bass – Chris Laurence
Cello – Georgie Born
Drums, Percussion, Timpani, Bells [Tubular] – Dave Barry
Horn [Tenor], Vocals, Piccolo Flute – Kate Westbrook
Piano, Vocals – Mike Westbrook
Saxophone [Alto, Soprano], Clarinet [Alto] – Chris Biscoe
Saxophone [Tenor, Soprano, Sopranino] – Alan Wakeman
Trombone – Malcolm Griffiths
Trumpet – Dave Hancock, Henry Lowther
Trumpet, Trumpet [Piccolo] – Mike Davies
Tuba – Alan Sinclair
Vocals, Trumpet – Phil Minton
Any questions -> support@pro-jazz.com. По всем вопросам пишите -> support@pro-jazz.com
18:29
155
Нет комментариев. Ваш будет первым!