Вы используете незарегистрированную версию компонента "Вкладки"!

Поиск

(Free Jazz) Cecil Taylor - Conquistador! {RVG Edition} - 1966, FLAC (tracks+.cue), lossless

(Free Jazz) Cecil Taylor - Conquistador! {RVG Edition} - 1966, FLAC (tracks+.cue), lossless
Треклист:
Cecil Taylor - Conquistador! {RVG Edition}
Жанр: Free Jazz
Год выпуска диска: 1966
Производитель диска: USA
Аудио кодек: FLAC
Тип рипа: tracks+.cue
Битрейт аудио: lossless
Продолжительность: 54:50
Лейбл: Blue Note
Источник: eD2K
Трэклист:
1 Conquistador
2 With (Exit)
3 With (Exit) [alternate take]
Музыканты:
Bill Dixon - trumpet
Jimmy Lyons - alto sax
Cecil Taylor - piano
Henry Grimes, Alan Silva - bass
Andrew Cyrille - drums
Originally recorded on October 6, 1966 at the Van Gelder Studio, Englewood Cliffs, New Jersey
Remastered in 2003 by Rudy Van Gelder
Вся коллекция BLUE NOTE - RVG Edition на трекере
Доп. информация:
На замену теме со статусом "сомнительно".
 
Отчёт EAC
EAC extraction logfile from 27. July 2005, 22:32 for CD
Cecil Taylor / Conquistador!
Used drive : MATSHITAUJDA745 DVD/CDRW Adapter: 2 ID: 0
Read mode : Secure with NO C2, accurate stream, disable cache
Read offset correction : 102
Overread into Lead-In and Lead-Out : No
Used output format : Internal WAV Routines
44.100 Hz; 16 Bit; Stereo
Other options :
Fill up missing offset samples with silence : Yes
Delete leading and trailing silent blocks : No
Installed external ASPI interface
Track 1
Filename C:\Documents and Settings\ymilner.DAN\My Documents\Audio\Cecil Taylor - Conquistador! (1966)[FLAC](RVG Remaster)\01 - Conquistador .wav
Pre-gap length 0:00:02.00
Peak level 97.9 %
Track quality 100.0 %
Test CRC 2821768A
Copy CRC 2821768A
Copy OK
Track 2
Filename C:\Documents and Settings\ymilner.DAN\My Documents\Audio\Cecil Taylor - Conquistador! (1966)[FLAC](RVG Remaster)\02 - With (Exit) .wav
Pre-gap length 0:00:03.05
Peak level 97.9 %
Track quality 100.0 %
Test CRC 2D9B8179
Copy CRC 2D9B8179
Copy OK
Track 3
Filename C:\Documents and Settings\ymilner.DAN\My Documents\Audio\Cecil Taylor - Conquistador! (1966)[FLAC](RVG Remaster)\03 - With (Exit) (Alternate Take) .wav
Pre-gap length 0:00:03.41
Peak level 98.0 %
Track quality 100.0 %
Test CRC 7487ED55
Copy CRC 7487ED55
Copy OK
No errors occured
End of status report
 
Audiochecker
AUDIOCHECKER v1.2 - by Dester - opdester@freemail.hu
~~~~~~~~~~~~~~~~~
1 -===- E:\Up-Down\Cecil Taylor - Conquistador!\01 - Conquistador .flac
Extracted successfully
Conclusion: This track looks like CDDA with probability 100%
2 -===- E:\Up-Down\Cecil Taylor - Conquistador!\02 - With (Exit) .flac
Extracted successfully
Conclusion: This track looks like CDDA with probability 100%
3 -===- E:\Up-Down\Cecil Taylor - Conquistador!\03 - With (Exit) (Alternate Take) .flac
Extracted successfully
Conclusion: This track looks like CDDA with probability 100%
Any questions -> support@pro-jazz.com. По всем вопросам пишите -> support@pro-jazz.com
16:59
159
Нет комментариев. Ваш будет первым!