Вы используете незарегистрированную версию компонента "Вкладки"!

Поиск

(Avant-Garde Jazz, Free Jazz, Free Improvisation) Peter Brotzmann and Peeter Uuskyla - Born Broke - 2008, FLAC (tracks+.cue), lossless

Треклист:
Peter Brötzmann and Peeter Uuskyla - Born Broke
Жанр: Avant-Garde Jazz, Free Jazz, Free Improvisation
Год выпуска диска: 2008
Производитель диска: USA
Аудио кодек: FLAC
Тип рипа: tracks+.cue
Битрейт аудио: lossless
Продолжительность: 1:36:14
Credits:
Brötzmann , K.Untiet - Artwork By [Cover]
Peeter Uuskyla - Drums
Dragan Tanaskovic - Engineer
Uuskyla* , Brötzmann* - Music By [All]
Amanda Protidou - Photography
Peter Brötzmann - Saxophone [Tenor], Clarinet
Notes:
Recorded at Bohus Sound Recording Kungälv, Sweden on September 9, 2006.
Трэклист:
CD1:
1. Born Broke 21:46
2. Beautiful But Stupid 13:34
3. Ain't Got the Money 22:30
 
XLD extraction logfile CD1
X Lossless Decoder version 20080926 (93.3)
XLD extraction logfile from 2008-11-15 21:08:29 -0800
Peter Brötzmann and Peeter Uuskyla / Born Broke
Used drive : MATSHITA DVD-R UJ-85J (revision FCQ5)
Use cdparanoia mode : YES (CDParanoia III 10.2 engine)
Disable audio cache : OK for the drive with cache less than 2750KB
Make use of C2 pointers : NO
Read offset correction : 102
Max retry count : 100
TOC of the extracted CD
Track | Start | Length | Start sector | End sector
---------------------------------------------------------
1 | 00:00:00 | 21:45:66 | 0 | 97940
2 | 21:45:66 | 13:33:55 | 97941 | 158970
3 | 35:19:46 | 22:29:69 | 158971 | 260214
Track 01
Filename : /Users/russellstokke/Desktop/01 Born Broke.flac
/Users/russellstokke/Desktop/01 Born Broke.mp3
CRC32 hash (test run) : E56B262E
CRC32 hash : E56B262E
CRC32 hash (skip zero) : 4795EE8C
AccurateRip signature : EF359B1B
->Track not present in AccurateRip database.
Statistics
Read error : 0
Skipped (treated as error) : 0
Edge jitter error (maybe fixed) : 0
Atom jitter error (maybe fixed) : 61
Drift error (maybe fixed) : 0
Dropped bytes error (maybe fixed) : 0
Duplicated bytes error (maybe fixed) : 0
Inconsistency in error sectors : 0
Track 02
Filename : /Users/russellstokke/Desktop/02 Beautiful but Stupid.flac
/Users/russellstokke/Desktop/02 Beautiful but Stupid.mp3
CRC32 hash (test run) : E91F46C8
CRC32 hash : E91F46C8
CRC32 hash (skip zero) : 3B270C2A
AccurateRip signature : 5C2A0013
->Track not present in AccurateRip database.
Statistics
Read error : 0
Skipped (treated as error) : 0
Edge jitter error (maybe fixed) : 0
Atom jitter error (maybe fixed) : 34
Drift error (maybe fixed) : 0
Dropped bytes error (maybe fixed) : 0
Duplicated bytes error (maybe fixed) : 0
Inconsistency in error sectors : 0
Track 03
Filename : /Users/russellstokke/Desktop/03 Ain't Got the Money.flac
/Users/russellstokke/Desktop/03 Ain't Got the Money.mp3
CRC32 hash (test run) : DDAD70AD
CRC32 hash : DDAD70AD
CRC32 hash (skip zero) : 9C657817
AccurateRip signature : 97F2545C
->Track not present in AccurateRip database.
Statistics
Read error : 0
Skipped (treated as error) : 0
Edge jitter error (maybe fixed) : 0
Atom jitter error (maybe fixed) : 26
Drift error (maybe fixed) : 0
Dropped bytes error (maybe fixed) : 0
Duplicated bytes error (maybe fixed) : 0
Inconsistency in error sectors : 0
No errors occurred
End of status report
CD2:
1. Dead and Useless 38:25
 
XLD extraction logfile CD2
X Lossless Decoder version 20080926 (93.3)
XLD extraction logfile from 2008-11-16 08:04:11 -0800
Peter Brötzmann and Peeter Uuskyla / Born Broke
Used drive : MATSHITA DVD-R UJ-85J (revision FCQ5)
Use cdparanoia mode : YES (CDParanoia III 10.2 engine)
Disable audio cache : OK for the drive with cache less than 2750KB
Make use of C2 pointers : NO
Read offset correction : 102
Max retry count : 100
TOC of the extracted CD
Track | Start | Length | Start sector | End sector
---------------------------------------------------------
1 | 00:00:00 | 38:24:50 | 0 | 172849
Track 01
Filename : /Users/russellstokke/Desktop/01 Dead and Useless.flac
/Users/russellstokke/Desktop/01 Dead and Useless.mp3
CRC32 hash (test run) : 99BFADC9
CRC32 hash : 99BFADC9
CRC32 hash (skip zero) : A22CE6F3
AccurateRip signature : 616A0C08
->Track not present in AccurateRip database.
Statistics
Read error : 0
Skipped (treated as error) : 0
Edge jitter error (maybe fixed) : 0
Atom jitter error (maybe fixed) : 0
Drift error (maybe fixed) : 0
Dropped bytes error (maybe fixed) : 0
Duplicated bytes error (maybe fixed) : 0
Inconsistency in error sectors : 0
No errors occurred
End of status report
downloaded from what.cd
По всем вопросам пишите личное сообщение пользователю M0p94ok.
16:59
162
Нет комментариев. Ваш будет первым!