Вы используете незарегистрированную версию компонента "Вкладки"!

Поиск

(Free Jazz) [CDR] Kapacitron (Kamil Szuszkiewicz, Wojtek Sobura, Hubert Zemler, Wojtek Traczyk) - Kapacitron - 2009, FLAC (tracks+.cue), lossless

(Free Jazz) [CDR] Kapacitron (Kamil Szuszkiewicz, Wojtek Sobura, Hubert Zemler, Wojtek Traczyk) - Kapacitron - 2009, FLAC (tracks+.cue), lossless
Треклист:
Kapacitron / Kapacitron
Жанр: Free Jazz
Носитель: CDR
Страна-производитель диска (релиза): Poland
Год издания: 2009
Издатель (лейбл): self-released
Аудиокодек: FLAC (*.flac)
Тип рипа: tracks+.cue
Битрейт аудио: lossless
Продолжительность: 24:34
Источник (релизер): я
Наличие сканов в содержимом раздачи: да
Треклист:
1. ’ (5:26)
2. ’’ (4:00)
3. ’’’ (3:06)
4. ’’’’ (4:18)
5. ’’’’’ (4:23)
6. ’’’’’’ (3:21)
Kamil Szuszkiewicz – Trumpet
Wojtek Sobura – Drums, Objects
Hubert Zemler – Drums, Objects
Wojtek Traczyk – Double Bass
 
Лог создания рипа
Exact Audio Copy V1.0 beta 3 from 29. August 2011
EAC extraction logfile from 12. November 2014, 12:22
Kapacitron / Kapacitron
Used drive : SlimtypeeNAU508 5 Adapter: 1 ID: 0
Read mode : Secure
Utilize accurate stream : Yes
Defeat audio cache : Yes
Make use of C2 pointers : No
Read offset correction : 6
Overread into Lead-In and Lead-Out : No
Fill up missing offset samples with silence : Yes
Delete leading and trailing silent blocks : No
Null samples used in CRC calculations : Yes
Used interface : Native Win32 interface for Win NT & 2000
Gap handling : Appended to previous track
Used output format : User Defined Encoder
Selected bitrate : 768 kBit/s
Quality : High
Add ID3 tag : No
Command line compressor : C:\Program Files (x86)\Exact Audio Copy\Flac\flac.exe
Additional command line options : -8 -V -T "ARTIST=%artist%" -T "TITLE=%title%" -T "ALBUM=%albumtitle%" -T "DATE=%year%" -T "TRACKNUMBER=%tracknr%" -T "TOTALTRACKS=%numtracks%" -T "GENRE=%genre%" -T "ALBUMARTIST=%albumartist%" -T "ALBUM ARTIST=%albumartist%" -T "COMMENT=EAC Secure Mode, Test & Copy, AccurateRip, FLAC -8" %source%
TOC of the extracted CD
Track | Start | Length | Start sector | End sector
---------------------------------------------------------
1 | 0:00.00 | 5:26.11 | 0 | 24460
2 | 5:26.11 | 4:00.25 | 24461 | 42485
3 | 9:26.36 | 3:05.40 | 42486 | 56400
4 | 12:32.01 | 4:18.00 | 56401 | 75750
5 | 16:50.01 | 4:22.56 | 75751 | 95456
6 | 21:12.57 | 3:20.58 | 95457 | 110514
Track 1
Filename C:\EAC rips\01 - '.wav
Pre-gap length 0:00:02.00
Peak level 89.1 %
Extraction speed 2.5 X
Track quality 100.0 %
Test CRC C55BD549
Copy CRC C55BD549
Track not present in AccurateRip database
Copy OK
Track 2
Filename C:\EAC rips\02 - ''.wav
Peak level 89.1 %
Extraction speed 2.2 X
Track quality 99.9 %
Test CRC B0782102
Copy CRC B0782102
Track not present in AccurateRip database
Copy OK
Track 3
Filename C:\EAC rips\03 - '''.wav
Peak level 89.1 %
Extraction speed 2.7 X
Track quality 100.0 %
Test CRC E2BBCFD5
Copy CRC E2BBCFD5
Track not present in AccurateRip database
Copy OK
Track 4
Filename C:\EAC rips\04 - ''''.wav
Peak level 89.1 %
Extraction speed 3.0 X
Track quality 100.0 %
Test CRC B665908E
Copy CRC B665908E
Track not present in AccurateRip database
Copy OK
Track 5
Filename C:\EAC rips\05 - '''''.wav
Peak level 84.7 %
Extraction speed 3.2 X
Track quality 100.0 %
Test CRC 864081C4
Copy CRC 864081C4
Track not present in AccurateRip database
Copy OK
Track 6
Filename C:\EAC rips\06 - ''''''.wav
Peak level 89.1 %
Extraction speed 3.2 X
Track quality 100.0 %
Test CRC 723A1EF0
Copy CRC 723A1EF0
Track not present in AccurateRip database
Copy OK
None of the tracks are present in the AccurateRip database
No errors occurred
End of status report
---- CUETools DB Plugin V2.1.4
[CTDB TOCID: MDyeRYVs_hj1MB9tqc.uZtjmqK8-] disk not present in database
Submit result: MDyeRYVs_hj1MB9tqc.uZtjmqK8- has been uploaded
==== Log checksum FF2BB3F47BA9B4B599757FF14C3E91197339FB1F0C0C46403007C1A88F308E0B ====
 
Содержание индексной карты (.CUE)
REM GENRE Jazz
REM DATE 2009
REM DISCID 4405C106
REM COMMENT "ExactAudioCopy v1.0b3"
PERFORMER "Kapacitron"
TITLE "Kapacitron"
FILE "01 - '.wav" WAVE
TRACK 01 AUDIO
TITLE "'"
PERFORMER "Kapacitron"
INDEX 01 00:00:00
FILE "02 - ''.wav" WAVE
TRACK 02 AUDIO
TITLE "''"
PERFORMER "Kapacitron"
INDEX 01 00:00:00
FILE "03 - '''.wav" WAVE
TRACK 03 AUDIO
TITLE "'''"
PERFORMER "Kapacitron"
INDEX 01 00:00:00
FILE "04 - ''''.wav" WAVE
TRACK 04 AUDIO
TITLE "''''"
PERFORMER "Kapacitron"
INDEX 01 00:00:00
FILE "05 - '''''.wav" WAVE
TRACK 05 AUDIO
TITLE "'''''"
PERFORMER "Kapacitron"
INDEX 01 00:00:00
FILE "06 - ''''''.wav" WAVE
TRACK 06 AUDIO
TITLE "''''''"
PERFORMER "Kapacitron"
INDEX 01 00:00:00
По всем вопросам пишите личное сообщение пользователю M0p94ok.
14:23
158
Нет комментариев. Ваш будет первым!