Поиск

(Free Jazz) [CD] Cactus Truck (John Dikeman, Onno Govaert, Jasper Stadhouders) - Seizures Palace - 2014, FLAC (tracks+.cue), lossless

(Free Jazz) [CD] Cactus Truck (John Dikeman, Onno Govaert, Jasper Stadhouders) - Seizures Palace - 2014, FLAC (tracks+.cue), lossless
Треклист:
Cactus Truck / Seizures Palace
Жанр: Free Jazz
Носитель: CD
Страна-производитель диска (релиза): Poland
Год издания: 2014
Издатель (лейбл): Nottwo
Номер по каталогу: MW 919-2
Аудиокодек: FLAC (*.flac)
Тип рипа: tracks+.cue
Битрейт аудио: lossless
Продолжительность: 44:30
Источник (релизер): gssmg7
Наличие сканов в содержимом раздачи: да
Треклист:
1. Untitled (0:14)
2. Will To Power (11:27)
3. Drones (6:16)
4. Fetzer (7:14)
5. Difference And Repetition (0:23)
6. Fuck You Nash (8:33)
7. One For Roy (4:59)
8. Fourth Wind (5:18)
9. * (0:06)
 
Лог создания рипа
Exact Audio Copy V1.0 beta 2 from 29. April 2011
EAC extraction logfile from 9. July 2015, 21:08
Cactus Truck / Seizures Palace
Used drive : Optiarc DVD RW AD-5280S Adapter: 1 ID: 1
Read mode : Secure
Utilize accurate stream : Yes
Defeat audio cache : Yes
Make use of C2 pointers : No
Read offset correction : 48
Overread into Lead-In and Lead-Out : No
Fill up missing offset samples with silence : Yes
Delete leading and trailing silent blocks : No
Null samples used in CRC calculations : Yes
Used interface : Installed external ASPI interface
Gap handling : Appended to previous track
Used output format : User Defined Encoder
Selected bitrate : 128 kBit/s
Quality : High
Add ID3 tag : No
Command line compressor : C:\Program Files\FLAC\flac.exe
Additional command line options : -V -8 -T "Genre=%genre%" -T "Artist=%artist%" -T "Title=%title%" -T "Album=%albumtitle%" -T "Date=%year%" -T "Tracknumber=%tracknr%" -T "Comment=%comment%" %source%
TOC of the extracted CD
Track | Start | Length | Start sector | End sector
---------------------------------------------------------
1 | 0:00.00 | 0:14.52 | 0 | 1101
2 | 0:14.52 | 11:27.19 | 1102 | 52645
3 | 11:41.71 | 6:15.18 | 52646 | 80788
4 | 17:57.14 | 7:14.52 | 80789 | 113390
5 | 25:11.66 | 0:22.64 | 113391 | 115104
6 | 25:34.55 | 8:32.37 | 115105 | 153541
7 | 34:07.17 | 4:58.71 | 153542 | 175962
8 | 39:06.13 | 5:18.38 | 175963 | 199850
9 | 44:24.51 | 0:06.21 | 199851 | 200321
Track 1
Filename C:\Cactus Truck (2014) - Seizures Palace\01 - Untitled.wav
Pre-gap length 0:00:02.00
Peak level 10.5 %
Extraction speed 0.7 X
Track quality 100.0 %
Test CRC 126D3A1F
Copy CRC 126D3A1F
Track not present in AccurateRip database
Copy OK
Track 2
Filename C:\Cactus Truck (2014) - Seizures Palace\02 - Will To Power.wav
Pre-gap length 0:00:01.00
Peak level 99.9 %
Extraction speed 2.8 X
Track quality 99.9 %
Test CRC E19D5535
Copy CRC E19D5535
Track not present in AccurateRip database
Copy OK
Track 3
Filename C:\Cactus Truck (2014) - Seizures Palace\03 - Drones.wav
Pre-gap length 0:00:02.00
Peak level 99.9 %
Extraction speed 3.4 X
Track quality 100.0 %
Test CRC F704BBB7
Copy CRC F704BBB7
Track not present in AccurateRip database
Copy OK
Track 4
Filename C:\Cactus Truck (2014) - Seizures Palace\04 - Fetzer.wav
Pre-gap length 0:00:02.00
Peak level 99.9 %
Extraction speed 3.8 X
Track quality 100.0 %
Test CRC 519E54A3
Copy CRC 519E54A3
Track not present in AccurateRip database
Copy OK
Track 5
Filename C:\Cactus Truck (2014) - Seizures Palace\05 - Difference and Repetition.wav
Pre-gap length 0:00:02.00
Peak level 99.9 %
Extraction speed 1.6 X
Track quality 100.0 %
Test CRC A722E7B3
Copy CRC A722E7B3
Track not present in AccurateRip database
Copy OK
Track 6
Filename C:\Cactus Truck (2014) - Seizures Palace\06 - Fuck You Nash.wav
Pre-gap length 0:00:02.00
Peak level 99.9 %
Extraction speed 4.3 X
Track quality 100.0 %
Test CRC 874AABB0
Copy CRC 874AABB0
Track not present in AccurateRip database
Copy OK
Track 7
Filename C:\Cactus Truck (2014) - Seizures Palace\07 - One For Roy.wav
Pre-gap length 0:00:02.00
Peak level 99.9 %
Extraction speed 4.4 X
Track quality 100.0 %
Test CRC FBDE9F98
Copy CRC FBDE9F98
Track not present in AccurateRip database
Copy OK
Track 8
Filename C:\Cactus Truck (2014) - Seizures Palace\08 - Fourth Wind.wav
Pre-gap length 0:00:02.00
Peak level 99.9 %
Extraction speed 4.6 X
Track quality 100.0 %
Test CRC BBE8F6C8
Copy CRC BBE8F6C8
Track not present in AccurateRip database
Copy OK
Track 9
Filename C:\Cactus Truck (2014) - Seizures Palace\09 - '''.wav
Peak level 99.9 %
Extraction speed 0.7 X
Track quality 100.0 %
Test CRC 231E5E5A
Copy CRC 231E5E5A
Track not present in AccurateRip database
Copy OK
None of the tracks are present in the AccurateRip database
No errors occurred
End of status report
==== Log checksum A453043DD6162CD3007E375C49A0B0B8A4AAD410E1A26E00A429305F37D8792E ====
 
Содержание индексной карты (.CUE)
REM GENRE Jazz
REM DATE 2014
REM DISCID 710A6E09
REM COMMENT "ExactAudioCopy v1.0b2"
PERFORMER "Cactus Truck"
TITLE "Seizures Palace"
FILE "01 - Untitled.wav" WAVE
TRACK 01 AUDIO
TITLE "Untitled"
PERFORMER "Cactus Truck"
INDEX 01 00:00:00
TRACK 02 AUDIO
TITLE "Will To Power"
PERFORMER "Cactus Truck"
INDEX 00 00:13:52
FILE "02 - Will To Power.wav" WAVE
INDEX 01 00:00:00
TRACK 03 AUDIO
TITLE "Drones"
PERFORMER "Cactus Truck"
INDEX 00 11:25:19
FILE "03 - Drones.wav" WAVE
INDEX 01 00:00:00
TRACK 04 AUDIO
TITLE "Fetzer"
PERFORMER "Cactus Truck"
INDEX 00 06:13:18
FILE "04 - Fetzer.wav" WAVE
INDEX 01 00:00:00
TRACK 05 AUDIO
TITLE "Difference and Repetition"
PERFORMER "Cactus Truck"
INDEX 00 07:12:52
FILE "05 - Difference and Repetition.wav" WAVE
INDEX 01 00:00:00
TRACK 06 AUDIO
TITLE "Fuck You Nash"
PERFORMER "Cactus Truck"
INDEX 00 00:20:64
FILE "06 - Fuck You Nash.wav" WAVE
INDEX 01 00:00:00
TRACK 07 AUDIO
TITLE "One For Roy"
PERFORMER "Cactus Truck"
INDEX 00 08:30:37
FILE "07 - One For Roy.wav" WAVE
INDEX 01 00:00:00
TRACK 08 AUDIO
TITLE "Fourth Wind"
PERFORMER "Cactus Truck"
INDEX 00 04:56:71
FILE "08 - Fourth Wind.wav" WAVE
INDEX 01 00:00:00
FILE "09 - '''.wav" WAVE
TRACK 09 AUDIO
TITLE "'''"
PERFORMER "Cactus Truck"
INDEX 01 00:00:00
 
Об альбоме (сборнике)
Seizures Palace was recorded in Brooklyn, at the end of that tour, before the trio returned to The Netherlands. The ballsiness of their tour experience is brought to bear here. The music from the 6-second track "*," the 23-second "Difference and Repetition," to the 11 ½ minute "Will To Power" pummel from the get-go. Dikeman's ears are tuned to the machine gun sound of Peter Brotzmann, notably from his years with Last Exit or his recordings with Shoji Hano and Keiji Haino. The charm (can we use that word?) of this trio is that their ferocity is directed outward. Their music detonates, not within but directionally. Stadhouders switches from a a thunderous bass to a metal-on- metal guitar grind and Onno Govaert's drums serve as a comrade in ferocity. Their passion is for speed, hard core energy, and exhaustive music making. ~ mark corroto, allaboutjazz.com
In music skronk is a word used to describe the indescribable; usually in reference to aggressive noise that is seemingly incoherent, a sax bleating non stop, drums flailing in non linear rhythms, or guitars screeching sheets of sound. It has negative connotations, a word that fits the bill when someone is talking about music that is so jarring that words to adequately describe it fails. The Cactus Truck revels in it, with creativity and excellence, in their new and appropriately titled album, "Seizures Palace." I'll be clear: this is not for the feint of heart. This is tinnitus inducing, headphone shattering skronk of the best kind. With John Dikeman on saxophone, Jasper Stadhouders on guitar, and Onno Govaert on drums, Cactus Truck is a Dutch group strongly influenced by Albert Ayler, Peter Brotzmann, and the no noise scene of the late 70s/early 80s. Dikeman is a force on saxophone, not acerbic like Brotzmann and a little more lyrical than Ayler, but no less potent in breathing fire through his instrument. Stadhouders is equally powerful on guitar, his playing culling from the sounds created by early 80s groups like Sonic Youth, the Swans, the Ex, and a myriad of other post punk noise groups. Govaert finished the trio off with percussion that sound like it is falling off of a cliff, but is cohesive and underlines the power of his fellow musicians. Throughout they do cross the boundaries of free jazz and punk, fusing the improvisational of the former with the earthy hardcore and speed of the latter. Three of the tracks are less than 30 seconds, framing the album by occurring in the beginning, middle and end. "Will To Power," "One For Roy," and "Fourth Wind" are stand out tracks, with forceful statements made by all three players, trading blows and punches as if their lives depended on it. They are creative enough no not make the noise all sound similar, in fact their variety in sonic attacks is what makes this album work so well. "Seizures Palace" is highly recommended, not only for its brute force, but for its creative chops as well. ~ stefan wood, freejazzblog.com
 
Состав
John Dikeman - alto saxophone, tenor saxophone
Onno Govaert - drums
Jasper Stadhouders - guitar, bass
По всем вопросам пишите личное сообщение пользователю M0p94ok.
14:24
156
Нет комментариев. Ваш будет первым!