Вы используете незарегистрированную версию компонента "Вкладки"!

Поиск

(free jazz) [cd] Xavier Charles - Invisible 2010 , FLAC (tracks+.cue), lossless

(free jazz) [cd] Xavier Charles - Invisible 2010 , FLAC (tracks+.cue), lossless
Треклист:
(free jazz) [cd] Xavier Charles - Invisible 2010 , FLAC (tracks+.cue), lossless


Xavier Charles - Invisible 2010

Жанр:free jazz
Год выпуска: 2010
Издатель (лейбл): sofa / SOFA531
Формат: FLAC (tracks+.cue)
Битрейт аудио: lossless
Продолжительность 45`02
Источник: what.cd
Xavier Charles – Clarinet

tracks

1 Rouge 14:12
2 Jaune 23:11
3 Orange 7:37


 
.log
X Lossless Decoder version 20141129 (148.1)
XLD extraction logfile from 2015-01-02 21:32:32 +0300
Xavier Charles / Invisible
Used drive : HL-DT-ST DVDRW GX30N (revision RP09)
Media type : Pressed CD
Ripper mode : XLD Secure Ripper
Disable audio cache : OK for the drive with a cache less than 1375KiB
Make use of C2 pointers : NO
Read offset correction : 6
Max retry count : 10000
Gap status : Analyzed, Appended (except HTOA)
TOC of the extracted CD
Track | Start | Length | Start sector | End sector
---------------------------------------------------------
1 | 00:00:00 | 14:12:33 | 0 | 63932
2 | 14:12:33 | 23:11:01 | 63933 | 168258
3 | 37:23:34 | 07:38:23 | 168259 | 202631
AccurateRip Summary
Disc not found in AccurateRip DB.
All Tracks
Album gain : -4.16 dB
Peak : 0.977448
Statistics
Read error : 0
Jitter error (maybe fixed) : 0
Retry sector count : 0
Damaged sector count : 0
Track 01
Filename : /Users/Shared/Grabbed/Xavier Charles/2010 - Invisible [FLAC]/01 - Rouge.flac
Pre-gap length : 00:02:00
Track gain : -3.89 dB
Peak : 0.977448
CRC32 hash (test run) : 205AC5B1
CRC32 hash : 205AC5B1
CRC32 hash (skip zero) : 066A3952
AccurateRip v1 signature : 63F44BAC
AccurateRip v2 signature : CDE7C493
->Track not present in AccurateRip database.
Statistics
Read error : 0
Jitter error (maybe fixed) : 0
Retry sector count : 0
Damaged sector count : 0
Track 02
Filename : /Users/Shared/Grabbed/Xavier Charles/2010 - Invisible [FLAC]/02 - Jaune.flac
Track gain : -4.81 dB
Peak : 0.977356
CRC32 hash (test run) : D57D8259
CRC32 hash : D57D8259
CRC32 hash (skip zero) : 6E2BB3C2
AccurateRip v1 signature : B8D240C5
AccurateRip v2 signature : 96D3BC7E
->Track not present in AccurateRip database.
Statistics
Read error : 0
Jitter error (maybe fixed) : 0
Retry sector count : 0
Damaged sector count : 0
Track 03
Filename : /Users/Shared/Grabbed/Xavier Charles/2010 - Invisible [FLAC]/03 - Orange.flac
Track gain : 0.30 dB
Peak : 0.977386
CRC32 hash (test run) : B2010DA5
CRC32 hash : B2010DA5
CRC32 hash (skip zero) : 1AD71F5A
AccurateRip v1 signature : 3AE9B593
AccurateRip v2 signature : F4C8E6F1
->Track not present in AccurateRip database.
Statistics
Read error : 0
Jitter error (maybe fixed) : 0
Retry sector count : 0
Damaged sector count : 0
No errors occurred
End of status report
-----BEGIN XLD SIGNATURE-----
znor7F5vnZoj5fYYPOijpA0SvdOIlcmGUVrsE.68ODe47oz4HvEgsHO6TD9GjcORCdbF3pd0keruRUvE8cWDAYf1QdG3VIbZqZen_Oi
-----END XLD SIGNATURE-----
 
.cue
TITLE "Invisible"
PERFORMER "Xavier Charles"
REM GENRE "Free Jazz"
REM DATE "2010"
REM DISCID 200A8D03
REM REPLAYGAIN_ALBUM_GAIN -4.16 dB
REM REPLAYGAIN_ALBUM_PEAK 0.977448
FILE "01 - Rouge.flac" WAVE
TRACK 01 AUDIO
TITLE "Rouge"
PERFORMER "Xavier Charles"
SONGWRITER "Xavier Charles"
ISRC NOSFA1031010
REM REPLAYGAIN_TRACK_GAIN -3.89 dB
REM REPLAYGAIN_TRACK_PEAK 0.977448
INDEX 01 00:00:00
FILE "02 - Jaune.flac" WAVE
TRACK 02 AUDIO
TITLE "Jaune"
PERFORMER "Xavier Charles"
SONGWRITER "Xavier Charles"
ISRC NOSFA1031020
REM REPLAYGAIN_TRACK_GAIN -4.81 dB
REM REPLAYGAIN_TRACK_PEAK 0.977356
INDEX 01 00:00:00
FILE "03 - Orange.flac" WAVE
TRACK 03 AUDIO
TITLE "Orange"
PERFORMER "Xavier Charles"
SONGWRITER "Xavier Charles"
ISRC NOSFA1031030
REM REPLAYGAIN_TRACK_GAIN 0.30 dB
REM REPLAYGAIN_TRACK_PEAK 0.977386
INDEX 01 00:00:00

http://www.discogs.com/Xavier-Charles-Invisible/release/2627316
другие релизы
По всем вопросам пишите личное сообщение пользователю M0p94ok.
08:42
151
Нет комментариев. Ваш будет первым!