Вы используете незарегистрированную версию компонента "Вкладки"!

Поиск

(free jazz) [cd] Joe McPhee - Trinity 1972, FLAC (tracks+.cue), lossless

(free jazz) [cd] Joe McPhee - Trinity 1972, FLAC (tracks+.cue), lossless
Треклист:
(free jazz) [cd] Joe McPhee - Trinity 1972, FLAC (tracks+.cue), lossless


Joe McPhee - Trinity 1972

Жанр:free jazz
Год выпуска:1972
Издатель (лейбл): 2011, Atavistic ‎– UMS/ALP214CD
Формат: FLAC (tracks+.cue)
Битрейт аудио: lossless
Продолжительность 55`52
Источник: what.cd

tracks

1 Ionization 28:40
2 Astral Spirits 10:42
3 Delta 16:19


 
.log
Exact Audio Copy V1.0 beta 3 from 29. August 2011
EAC extraction logfile from 9. January 2014, 11:01
Joe McPhee / Trinity
Used drive : HL-DT-STBD-RE BH16NS40 Adapter: 0 ID: 0
Read mode : Secure
Utilize accurate stream : Yes
Defeat audio cache : Yes
Make use of C2 pointers : No
Read offset correction : 6
Overread into Lead-In and Lead-Out : No
Fill up missing offset samples with silence : Yes
Delete leading and trailing silent blocks : No
Null samples used in CRC calculations : Yes
Used interface : Native Win32 interface for Win NT & 2000
Gap handling : Appended to previous track
Used output format : User Defined Encoder
Selected bitrate : 1024 kBit/s
Quality : High
Add ID3 tag : No
Command line compressor : B:\Programmes\Exact Audio Copy\FLAC\FLAC.EXE
Additional command line options : -8 -V -T "ARTIST=%artist%" -T "TITLE=%title%" -T "ALBUM=%albumtitle%" -T "DATE=%year%" -T "TRACKNUMBER=%tracknr%" -T "GENRE=%genre%" -T "PERFORMER=%albuminterpret%" -T "COMPOSER=%composer%" %haslyrics%--tag-from-file=LYRICS="%lyricsfile%"%haslyrics% -T "ALBUMARTIST=%albumartist%" -T "DISCNUMBER=%cdnumber%" -T "TOTALDISCS=%totalcds%" -T "TOTALTRACKS=%numtracks%" -T "COMMENT=%comment%" %source% -o %dest%
TOC of the extracted CD
Track | Start | Length | Start sector | End sector
---------------------------------------------------------
1 | 0:01.00 | 28:41.70 | 75 | 129219
2 | 28:42.70 | 10:50.07 | 129220 | 177976
3 | 39:33.02 | 16:19.73 | 177977 | 251474
Track 1
Filename A:\Music\What.cd\Ripped\01.Ionization.wav
Pre-gap length 0:00:03.00
Peak level 96.7 %
Extraction speed 1.5 X
Track quality 100.0 %
Test CRC 4D4514EF
Copy CRC 4D4514EF
Accurately ripped (confidence 3) [DD47E215] (AR v1)
Copy OK
Track 2
Filename A:\Music\What.cd\Ripped\02.Astral Spirits.wav
Pre-gap length 0:00:01.68
Peak level 92.0 %
Extraction speed 1.9 X
Track quality 100.0 %
Test CRC 38AD15C0
Copy CRC 38AD15C0
Accurately ripped (confidence 3) [8B323F3D] (AR v1)
Copy OK
Track 3
Filename A:\Music\What.cd\Ripped\03.Delta.wav
Pre-gap length 0:00:07.26
Peak level 92.0 %
Extraction speed 2.2 X
Track quality 100.0 %
Test CRC 82950317
Copy CRC 82950317
Accurately ripped (confidence 3) [CC70459A] (AR v1)
Copy OK
All tracks accurately ripped
No errors occurred
End of status report
==== Log checksum 7239D8B139AE86F6EFE71B251F2F661FA7B568FCF56D877587D96048774ABC2A ====
 
.cue
REM GENRE Jazz
REM DATE 1971
REM DISCID 220D1803
REM COMMENT "ExactAudioCopy v1.0b3"
PERFORMER "Joe McPhee"
TITLE "Trinity"
FILE "01.Ionization.wav" WAVE
TRACK 01 AUDIO
TITLE "Ionization"
PERFORMER "Joe McPhee"
PREGAP 00:01:00
INDEX 01 00:00:00
TRACK 02 AUDIO
TITLE "Astral Spirits"
PERFORMER "Joe McPhee"
INDEX 00 28:40:19
FILE "02.Astral Spirits.wav" WAVE
INDEX 01 00:00:00
TRACK 03 AUDIO
TITLE "Delta"
PERFORMER "Joe McPhee"
INDEX 00 10:42:62
FILE "03.Delta.wav" WAVE
INDEX 01 00:00:00

http://www.discogs.com/Joe-McPhee-Trinity/release/1117640
другие релизы
По всем вопросам пишите личное сообщение пользователю M0p94ok.
08:41
150
Нет комментариев. Ваш будет первым!