Вы используете незарегистрированную версию компонента "Вкладки"!

Поиск

(free jazz) [cd] Wadada Leo Smith & Louis Moholo-Moholo - Ancestors (2012) [FLAC] {TUM CD 029}, FLAC (tracks+.cue), lossless

(free jazz) [cd] Wadada Leo Smith & Louis Moholo-Moholo - Ancestors (2012) [FLAC] {TUM CD 029}, FLAC (tracks+.cue), lossless
Треклист:
(free jazz) [cd] Wadada Leo Smith & Louis Moholo-Moholo - Ancestors (2012) [FLAC] {TUM CD 029}, FLAC (tracks+.cue), lossless


Wadada Leo Smith & Louis Moholo-Moholo - Ancestors (2012) {TUM CD 029}

Жанр: free jazz
Год выпуска: 2012
Издатель (лейбл):TUM Records / TUM CD 029
Формат: FLAC (tracks+.cue)
Битрейт аудио: lossless
Продолжительность 1`00`39
Источник: what.cd

tracks

1 Moholo-Moholo / Golden Spirit 8:55
2 No Name In The Street, James Baldwin 8:25
3 Jackson Pollock - Action 9:18
4 Siholaro 8:02
Ancestors (25:41)
5.1 Part 1 3:20
5.2 Part 2 10:06
5.3 Part 3 5:25
5.4 Part 4 3:59
5.5 Part 5 2:51


 
.log
Exact Audio Copy V1.0 beta 3 from 29. August 2011
EAC extraction logfile from 18. June 2015, 3:44
Wadada Leo Smith & Louis Moholo-Moholo / Ancestors
Used drive : HL-DT-STDVDRAM SP60NB50 Adapter: 2 ID: 0
Read mode : Secure
Utilize accurate stream : Yes
Defeat audio cache : Yes
Make use of C2 pointers : No
Read offset correction : 6
Overread into Lead-In and Lead-Out : No
Fill up missing offset samples with silence : Yes
Delete leading and trailing silent blocks : No
Null samples used in CRC calculations : Yes
Used interface : Native Win32 interface for Win NT & 2000
Gap handling : Appended to previous track
Used output format : User Defined Encoder
Selected bitrate : 1024 kBit/s
Quality : High
Add ID3 tag : No
Command line compressor : C:\Program Files (x86)\Exact Audio Copy\Flac\flac.exe
Additional command line options : -8 -V -T "ARTIST=%artist%" -T "TITLE=%title%" -T "ALBUM=%albumtitle%" -T "DATE=%year%" -T "TRACKNUMBER=%tracknr%" -T "GENRE=%genre%" -T "PERFORMER=%albuminterpret%" -T "COMPOSER=%composer%" %haslyrics%--tag-from-file=LYRICS="%lyricsfile%"%haslyrics% -T "ALBUMARTIST=%albumartist%" -T "DISCNUMBER=%cdnumber%" -T "TOTALDISCS=%totalcds%" -T "TOTALTRACKS=%numtracks%" -T "COMMENT=%comment%" %source% -o %dest%
TOC of the extracted CD
Track | Start | Length | Start sector | End sector
---------------------------------------------------------
1 | 0:00.00 | 8:59.66 | 0 | 40490
2 | 8:59.66 | 8:29.03 | 40491 | 78668
3 | 17:28.69 | 9:19.56 | 78669 | 120649
4 | 26:48.50 | 8:06.55 | 120650 | 157154
5 | 34:55.30 | 3:19.59 | 157155 | 172138
6 | 38:15.14 | 10:06.49 | 172139 | 217637
7 | 48:21.63 | 5:25.48 | 217638 | 242060
8 | 53:47.36 | 3:59.49 | 242061 | 260034
9 | 57:47.10 | 2:51.34 | 260035 | 272893
Track 1
Filename C:\FLAC Rips\Wadada Leo Smith & Louis Moholo-Moholo - Ancestors (2012) [FLAC] {TUM CD 029}\01 - MOHOLO-MOHOLO - Moholo-Moholo,Golden Spirite.wav
Pre-gap length 0:00:02.00
Peak level 90.1 %
Extraction speed 1.3 X
Track quality 100.0 %
Test CRC 968ED40B
Copy CRC 968ED40B
Accurately ripped (confidence 4) [0378A7A8] (AR v2)
Copy OK
Track 2
Filename C:\FLAC Rips\Wadada Leo Smith & Louis Moholo-Moholo - Ancestors (2012) [FLAC] {TUM CD 029}\02 - Wadada Leo Smith & Louis Moholo-Moholo - No Name In The Street, James Brown.wav
Pre-gap length 0:00:04.82
Peak level 85.0 %
Extraction speed 1.5 X
Track quality 100.0 %
Test CRC 0F02199E
Copy CRC 0F02199E
Accurately ripped (confidence 4) [1485464D] (AR v2)
Copy OK
Track 3
Filename C:\FLAC Rips\Wadada Leo Smith & Louis Moholo-Moholo - Ancestors (2012) [FLAC] {TUM CD 029}\03 - Wadada Leo Smith & Louis Moholo-Moholo - Jackson Pollock - Action.wav
Pre-gap length 0:00:03.85
Peak level 85.0 %
Extraction speed 1.7 X
Track quality 99.9 %
Test CRC 11635041
Copy CRC 11635041
Accurately ripped (confidence 4) [3040CDE7] (AR v2)
Copy OK
Track 4
Filename C:\FLAC Rips\Wadada Leo Smith & Louis Moholo-Moholo - Ancestors (2012) [FLAC] {TUM CD 029}\04 - Wadada Leo Smith & Louis Moholo-Moholo - Siholaro.wav
Pre-gap length 0:00:03.08
Peak level 85.0 %
Extraction speed 2.0 X
Track quality 100.0 %
Test CRC 5F818BD5
Copy CRC 5F818BD5
Accurately ripped (confidence 4) [E70FDE4A] (AR v2)
Copy OK
Track 5
Filename C:\FLAC Rips\Wadada Leo Smith & Louis Moholo-Moholo - Ancestors (2012) [FLAC] {TUM CD 029}\05 - Wadada Leo Smith & Louis Moholo-Moholo - Ancestors (Part 1).wav
Pre-gap length 0:00:04.48
Peak level 90.1 %
Extraction speed 1.8 X
Track quality 100.0 %
Test CRC 9E3D884D
Copy CRC 9E3D884D
Accurately ripped (confidence 4) [C042F17D] (AR v2)
Copy OK
Track 6
Filename C:\FLAC Rips\Wadada Leo Smith & Louis Moholo-Moholo - Ancestors (2012) [FLAC] {TUM CD 029}\06 - Wadada Leo Smith & Louis Moholo-Moholo - Ancestors (Part 2).wav
Peak level 90.1 %
Extraction speed 2.3 X
Track quality 100.0 %
Test CRC 18312489
Copy CRC 18312489
Accurately ripped (confidence 4) [9DA43187] (AR v2)
Copy OK
Track 7
Filename C:\FLAC Rips\Wadada Leo Smith & Louis Moholo-Moholo - Ancestors (2012) [FLAC] {TUM CD 029}\07 - Wadada Leo Smith & Louis Moholo-Moholo - Ancestors (Part 3).wav
Peak level 95.4 %
Extraction speed 2.3 X
Track quality 100.0 %
Test CRC FD59E055
Copy CRC FD59E055
Accurately ripped (confidence 4) [33BF4512] (AR v2)
Copy OK
Track 8
Filename C:\FLAC Rips\Wadada Leo Smith & Louis Moholo-Moholo - Ancestors (2012) [FLAC] {TUM CD 029}\08 - Wadada Leo Smith & Louis Moholo-Moholo - Ancestors (Part 4).wav
Peak level 90.1 %
Extraction speed 2.0 X
Track quality 99.9 %
Test CRC 389AE8EF
Copy CRC 389AE8EF
Accurately ripped (confidence 4) [279B3B44] (AR v2)
Copy OK
Track 9
Filename C:\FLAC Rips\Wadada Leo Smith & Louis Moholo-Moholo - Ancestors (2012) [FLAC] {TUM CD 029}\09 - Wadada Leo Smith & Louis Moholo-Moholo - Ancestors (Part 5).wav
Peak level 64.7 %
Extraction speed 2.2 X
Track quality 100.0 %
Test CRC DDCD91B5
Copy CRC DDCD91B5
Accurately ripped (confidence 4) [A47FA00A] (AR v2)
Copy OK
All tracks accurately ripped
No errors occurred
End of status report
---- CUETools DB Plugin V2.1.3
[CTDB TOCID: 3t7IIIL5SXuuW3GoXIwcT.14yrU-] found, Submit result: 3t7IIIL5SXuuW3GoXIwcT.14yrU- has been confirmed
[c434f61f] (4/4) Accurately ripped
==== Log checksum DD8D500182A395E07FDAA7E5C2DC6C4FB76BE5B493574548FFC72FE86520CD68 ====
 
.cue
REM GENRE Jazz
REM DATE 2012
REM DISCID 740E3609
REM COMMENT "ExactAudioCopy v1.0b3"
PERFORMER "Wadada Leo Smith & Louis Moholo-Moholo"
TITLE "Ancestors"
FILE "01 - MOHOLO-MOHOLO - Moholo-Moholo,Golden Spirite.wav" WAVE
TRACK 01 AUDIO
TITLE "Moholo-Moholo/Golden Spirite"
PERFORMER "MOHOLO-MOHOLO"
ISRC FITU91200001
INDEX 01 00:00:00
TRACK 02 AUDIO
TITLE "No Name In The Street, James Brown"
PERFORMER "Wadada Leo Smith & Louis Moholo-Moholo"
ISRC FITU91200002
INDEX 00 08:55:04
FILE "02 - Wadada Leo Smith & Louis Moholo-Moholo - No Name In The Street, James Brown.wav" WAVE
INDEX 01 00:00:00
TRACK 03 AUDIO
TITLE "Jackson Pollock - Action"
PERFORMER "Wadada Leo Smith & Louis Moholo-Moholo"
ISRC FITU91200003
INDEX 00 08:25:14
FILE "03 - Wadada Leo Smith & Louis Moholo-Moholo - Jackson Pollock - Action.wav" WAVE
INDEX 01 00:00:00
TRACK 04 AUDIO
TITLE "Siholaro"
PERFORMER "Wadada Leo Smith & Louis Moholo-Moholo"
ISRC FITU91200004
INDEX 00 09:16:50
FILE "04 - Wadada Leo Smith & Louis Moholo-Moholo - Siholaro.wav" WAVE
INDEX 01 00:00:00
TRACK 05 AUDIO
TITLE "Ancestors (Part 1)"
PERFORMER "Wadada Leo Smith & Louis Moholo-Moholo"
ISRC FITU91200005
INDEX 00 08:02:19
FILE "05 - Wadada Leo Smith & Louis Moholo-Moholo - Ancestors (Part 1).wav" WAVE
INDEX 01 00:00:00
FILE "06 - Wadada Leo Smith & Louis Moholo-Moholo - Ancestors (Part 2).wav" WAVE
TRACK 06 AUDIO
TITLE "Ancestors (Part 2)"
PERFORMER "Wadada Leo Smith & Louis Moholo-Moholo"
ISRC FITU91200005
INDEX 01 00:00:00
FILE "07 - Wadada Leo Smith & Louis Moholo-Moholo - Ancestors (Part 3).wav" WAVE
TRACK 07 AUDIO
TITLE "Ancestors (Part 3)"
PERFORMER "Wadada Leo Smith & Louis Moholo-Moholo"
ISRC FITU91200005
INDEX 01 00:00:00
FILE "08 - Wadada Leo Smith & Louis Moholo-Moholo - Ancestors (Part 4).wav" WAVE
TRACK 08 AUDIO
TITLE "Ancestors (Part 4)"
PERFORMER "Wadada Leo Smith & Louis Moholo-Moholo"
ISRC FITU91200005
INDEX 01 00:00:00
FILE "09 - Wadada Leo Smith & Louis Moholo-Moholo - Ancestors (Part 5).wav" WAVE
TRACK 09 AUDIO
TITLE "Ancestors (Part 5)"
PERFORMER "Wadada Leo Smith & Louis Moholo-Moholo"
ISRC FITU91200005
INDEX 01 00:00:00

http://www.discogs.com/Wadada-Leo-Smith-Louis-Moholo-Moholo-Ancestors/release/3946624
другие релизы
По всем вопросам пишите личное сообщение пользователю M0p94ok.
16:46
243
Нет комментариев. Ваш будет первым!