Вы используете незарегистрированную версию компонента "Вкладки"!

Поиск

(Avant-Garde Jazz, Free Jazz, Spiritual Jazz) [CD] Undivided (Waclaw Zimpel, Perry Robinson, Bobby Few, Mark Tokar, Klaus Kugel) - Moves Between Clouds - Live in Warsaw - 2011, FLAC (tracks+.cue), lossless

(Avant-Garde Jazz, Free Jazz, Spiritual Jazz) [CD] Undivided (Waclaw Zimpel, Perry Robinson, Bobby Few, Mark Tokar, Klaus Kugel) - Moves Between Clouds - Live in Warsaw - 2011, FLAC (tracks+.cue), lossless
Треклист:
Undivided | Moves Between Clouds - Live in Warsaw
Жанр: Avant-Garde Jazz, Free Jazz, Spiritual Jazz
Носитель: CD
Страна-производитель диска (релиза): Poland
Год издания: 2011
Издатель (лейбл): Multikulti
Номер по каталогу: MPT002
Страна исполнителя (группы): Poland USA Ukraine Germany
Аудиокодек: FLAC (*.flac)
Тип рипа: tracks+.cue
Битрейт аудио: lossless
Продолжительность: 00:44:56
Источник (релизер): soulseek
Наличие сканов в содержимом раздачи: да
Треклист:
1. Hoping The Morning Say (10:32)
2. Moves Between Clouds (14:38)
3. What A Big Quiet Noise (19:46)
 
Состав
Wacław Zimpel - clarinet, bass clarinet, tarogato
Perry Robinson - clarinet
Bobby Few - piano
Mark Tokar - bass
Klaus Kugel - drums

 
EAC log *
Exact Audio Copy V1.0 beta 2 from 29. April 2011
EAC extraction logfile from 20. October 2011, 0:09
Undivided / Moves Between Clouds - Live in Warsaw
Used drive : ATAPI DVD D DH16D2P Adapter: 0 ID: 0
Read mode : Secure
Utilize accurate stream : Yes
Defeat audio cache : Yes
Make use of C2 pointers : No
Read offset correction : 6
Overread into Lead-In and Lead-Out : No
Fill up missing offset samples with silence : Yes
Delete leading and trailing silent blocks : No
Null samples used in CRC calculations : No
Used interface : Native Win32 interface for Win NT & 2000
Used output format : Internal WAV Routines
Sample format : 44.100 Hz; 16 Bit; Stereo
TOC of the extracted CD
Track | Start | Length | Start sector | End sector
---------------------------------------------------------
1 | 0:00.00 | 10:32.62 | 0 | 47461
2 | 10:32.62 | 14:38.44 | 47462 | 113355
3 | 25:11.31 | 19:46.23 | 113356 | 202328
Range status and errors
Selected range
Filename K:\Temp\Undivided - Moves Between Clouds - Live in Warsaw.wav
Peak level 100.0 %
Extraction speed 4.3 X
Range quality 100.0 %
Copy CRC 1AD8145B
Copy OK
No errors occurred
AccurateRip summary
Track 1 not present in database
Track 2 not present in database
Track 3 not present in database
None of the tracks are present in the AccurateRip database
End of status report
 
.cue
REM GENRE "free jazz"
REM DATE 2009
REM DISCID 190A8903
REM COMMENT "ExactAudioCopy v1.0b2"
PERFORMER "Undivided"
TITLE "Moves Between Clouds - Live in Warsaw"
FILE "01. Hoping The Morning Say.wav" WAVE
TRACK 01 AUDIO
TITLE "Hoping The Morning Say"
PERFORMER "Undivided"
FLAGS DCP
INDEX 01 00:00:00
FILE "02. Moves Between Clouds.wav" WAVE
TRACK 02 AUDIO
TITLE "Moves Between Clouds"
PERFORMER "Undivided"
FLAGS DCP
INDEX 01 00:00:00
FILE "03. What A Big Quiet Noise.wav" WAVE
TRACK 03 AUDIO
TITLE "What A Big Quiet Noise"
PERFORMER "Undivided"
FLAGS DCP
INDEX 01 00:00:00
 
auCDtect
-----------------------
DON'T MODIFY THIS FILE
-----------------------
PERFORMER: auCDtect Task Manager, ver. 1.6.0 RC1 build 1.6.0.1
Copyright (c) 2008-2010 y-soft. All rights reserved
http://y-soft.org
ANALYZER: auCDtect: CD records authenticity detector, version 0.8.2
Copyright (c) 2004 Oleg Berngardt. All rights reserved.
Copyright (c) 2004 Alexander Djourik. All rights reserved.
FILE: 01. Hoping The Morning Say.flac
Size: 80329615 Hash: 4A9509FAA174786874A4624DE17DE435 Accuracy: -m0
Conclusion: CDDA 99%
Signature: 6B81231009D3BAE4BBA886FCDEE534608AD66FE9
FILE: 02. Moves Between Clouds.flac
Size: 75673770 Hash: F8652210C79D8E0C885DA3DFF04E96B7 Accuracy: -m0
Conclusion: CDDA 49%
Signature: 2A5B821363EE8FA0A4E108A1D7C114689C3D4EDF
FILE: 03. What A Big Quiet Noise.flac
Size: 127652285 Hash: D567A489381899BC8E1CFCFE6C72F04E Accuracy: -m0
Conclusion: CDDA 100%
Signature: 3A72385D22E09E6729B5ACCA24BAB3737B764517
 
spectrogram
 
* & +
* лог от имиджа, хотя куй фунциклирует...
Multikulti
+ Undivided - The Passion (2010)

 
квартет Mateen-Bauer-Tokar-Kugel, а также Wacław Zimpel (сольно и с проектом Saagara) 4-8.12.2015 выступят в рамках фестиваля Jazz Bez в нескольких городах Украины
4 декабря, Тернополь
Waclaw Zimpel & Saagara
4 декабря, Луцк
Mateen-Bauer-Tokar-Kugel
5 декабря, Луцк
Waclaw Zimpel & Saagara
6 декабря, Львов
Mateen-Bauer-Tokar-Kugel
Waclaw Zimpel & Saagara
7 декабря, Харьков
Waclaw Zimpel Solo Project
8 декабря, Краматорск
Waclaw Zimpel Solo Project
подробности на сайте львовского творческого объединения Дзига
По всем вопросам пишите личное сообщение пользователю M0p94ok.
16:44
215
Нет комментариев. Ваш будет первым!