Вы используете незарегистрированную версию компонента "Вкладки"!

Поиск

(free jazz) [cd] The Fonda-Stevens Group - Trio (2007), FLAC (tracks+.cue), lossless

(free jazz) [cd] The Fonda-Stevens Group - Trio (2007), FLAC (tracks+.cue), lossless
Треклист:
(free jazz) [cd] The Fonda-Stevens Group - Trio (2007), FLAC (tracks+.cue), lossless


The Fonda-Stevens Group - Trio (2007)

Жанр: free jazz
Год выпуска: 2007
Издатель (лейбл):Not Two Records / MW 781-2
Формат: FLAC (tracks+.cue)
Битрейт аудио: lossless
Продолжительность 51`01
Источник: what.cd
Double Bass – Joe Fonda
Drums – Harvey Sorgen
Piano – Michael Jefry Stevens

tracks

1. Soon To Know 14:24
2. The Search 7:43
3. Andrea 7:48
4. From The Source 10:01
5. The Path 5:52
6. Break Song 7:03


 
.log
X Lossless Decoder version 20141129 (148.1)
XLD extraction logfile from 2015-02-08 03:41:50 -0500
The Fonda/Stevens Group / Trio
Used drive : MATSHITA DVD-R UJ-8A8 (revision HB14)
Media type : Pressed CD
Ripper mode : XLD Secure Ripper
Disable audio cache : OK for the drive with a cache less than 1375KiB
Make use of C2 pointers : NO
Read offset correction : 102
Max retry count : 100
Gap status : Analyzed, Appended (except HTOA)
TOC of the extracted CD
Track | Start | Length | Start sector | End sector
---------------------------------------------------------
1 | 00:00:00 | 12:24:30 | 0 | 55829
2 | 12:24:30 | 07:42:46 | 55830 | 90525
3 | 20:07:01 | 07:58:57 | 90526 | 126432
4 | 28:05:58 | 10:00:61 | 126433 | 171493
5 | 38:06:44 | 05:52:23 | 171494 | 197916
6 | 43:58:67 | 07:02:26 | 197917 | 229592
AccurateRip Summary
Disc not found in AccurateRip DB.
All Tracks
Album gain : -2.87 dB
Peak : 0.988647
Statistics
Read error : 0
Jitter error (maybe fixed) : 0
Retry sector count : 0
Damaged sector count : 0
Track 01
Filename : /Users/XLD_rips/The Fonda/Stevens Group - Trio (2007) [FLAC]/01-01 Soon To Know.flac
Pre-gap length : 00:02:00
Track gain : -2.22 dB
Peak : 0.988617
CRC32 hash (test run) : 5A60C77A
CRC32 hash : 5A60C77A
CRC32 hash (skip zero) : 15A2854F
AccurateRip v1 signature : 205B7CE0
AccurateRip v2 signature : 023E1DFF
->Track not present in AccurateRip database.
Statistics
Read error : 0
Jitter error (maybe fixed) : 0
Retry sector count : 0
Damaged sector count : 0
Track 02
Filename : /Users/XLD_rips/The Fonda/Stevens Group - Trio (2007) [FLAC]/01-02 The Search.flac
Track gain : -3.78 dB
Peak : 0.988617
CRC32 hash (test run) : FD094F93
CRC32 hash : FD094F93
CRC32 hash (skip zero) : 124C2837
AccurateRip v1 signature : 5E9D2F51
AccurateRip v2 signature : 0319A0D4
->Track not present in AccurateRip database.
Statistics
Read error : 0
Jitter error (maybe fixed) : 0
Retry sector count : 0
Damaged sector count : 0
Track 03
Filename : /Users/XLD_rips/The Fonda/Stevens Group - Trio (2007) [FLAC]/01-03 Andrea.flac
Track gain : -0.21 dB
Peak : 0.988617
CRC32 hash (test run) : 27D32892
CRC32 hash : 27D32892
CRC32 hash (skip zero) : DBC68692
AccurateRip v1 signature : C154D62C
AccurateRip v2 signature : 8C3E5092
->Track not present in AccurateRip database.
Statistics
Read error : 0
Jitter error (maybe fixed) : 0
Retry sector count : 0
Damaged sector count : 0
Track 04
Filename : /Users/XLD_rips/The Fonda/Stevens Group - Trio (2007) [FLAC]/01-04 From the Source.flac
Track gain : -1.39 dB
Peak : 0.988586
CRC32 hash (test run) : 735D0588
CRC32 hash : 735D0588
CRC32 hash (skip zero) : CD03E285
AccurateRip v1 signature : 0CC6EBEF
AccurateRip v2 signature : 401B16CE
->Track not present in AccurateRip database.
Statistics
Read error : 0
Jitter error (maybe fixed) : 0
Retry sector count : 0
Damaged sector count : 0
Track 05
Filename : /Users/XLD_rips/The Fonda/Stevens Group - Trio (2007) [FLAC]/01-05 The Path.flac
Track gain : -1.87 dB
Peak : 0.988586
CRC32 hash (test run) : E15EDE92
CRC32 hash : E15EDE92
CRC32 hash (skip zero) : 54351FB1
AccurateRip v1 signature : 995B50A5
AccurateRip v2 signature : 51C5F215
->Track not present in AccurateRip database.
Statistics
Read error : 0
Jitter error (maybe fixed) : 0
Retry sector count : 0
Damaged sector count : 0
Track 06
Filename : /Users/XLD_rips/The Fonda/Stevens Group - Trio (2007) [FLAC]/01-06 Break Song.flac
Track gain : -4.68 dB
Peak : 0.988647
CRC32 hash (test run) : 2F9669EA
CRC32 hash : 2F9669EA
CRC32 hash (skip zero) : 11A46051
AccurateRip v1 signature : 92A6352E
AccurateRip v2 signature : F5780747
->Track not present in AccurateRip database.
Statistics
Read error : 0
Jitter error (maybe fixed) : 0
Retry sector count : 0
Damaged sector count : 0
No errors occurred
End of status report
-----BEGIN XLD SIGNATURE-----
dRLH65akHfzPUUayjoOvvCWQoXZoB3O6LYBsBtCn1TQ2vJ8_r.6LgYG1ok6u7873Z4YpXPFnVYz5BdVIKgR9P5xhXkY0jCBRSYnPZkK
-----END XLD SIGNATURE-----
 
.cue
TITLE "Trio"
PERFORMER "The Fonda/Stevens Group"
REM GENRE "Jazz"
REM DATE "2007"
REM DISCNUMBER 1
REM TOTALDISCS 1
REM DISCID 550BF506
REM REPLAYGAIN_ALBUM_GAIN -2.87 dB
REM REPLAYGAIN_ALBUM_PEAK 0.988647
REM COMPILATION TRUE
FILE "01-01 Soon To Know.flac" WAVE
TRACK 01 AUDIO
TITLE "Soon To Know"
PERFORMER "The Fonda/Stevens Group"
REM REPLAYGAIN_TRACK_GAIN -2.22 dB
REM REPLAYGAIN_TRACK_PEAK 0.988617
INDEX 01 00:00:00
FILE "01-02 The Search.flac" WAVE
TRACK 02 AUDIO
TITLE "The Search"
PERFORMER "The Fonda/Stevens Group"
REM REPLAYGAIN_TRACK_GAIN -3.78 dB
REM REPLAYGAIN_TRACK_PEAK 0.988617
INDEX 01 00:00:00
FILE "01-03 Andrea.flac" WAVE
TRACK 03 AUDIO
TITLE "Andrea"
PERFORMER "The Fonda/Stevens Group"
REM REPLAYGAIN_TRACK_GAIN -0.21 dB
REM REPLAYGAIN_TRACK_PEAK 0.988617
INDEX 01 00:00:00
FILE "01-04 From the Source.flac" WAVE
TRACK 04 AUDIO
TITLE "From the Source"
PERFORMER "The Fonda/Stevens Group"
REM REPLAYGAIN_TRACK_GAIN -1.39 dB
REM REPLAYGAIN_TRACK_PEAK 0.988586
INDEX 01 00:00:00
FILE "01-05 The Path.flac" WAVE
TRACK 05 AUDIO
TITLE "The Path"
PERFORMER "The Fonda/Stevens Group"
REM REPLAYGAIN_TRACK_GAIN -1.87 dB
REM REPLAYGAIN_TRACK_PEAK 0.988586
INDEX 01 00:00:00
FILE "01-06 Break Song.flac" WAVE
TRACK 06 AUDIO
TITLE "Break Song"
PERFORMER "The Fonda/Stevens Group"
REM REPLAYGAIN_TRACK_GAIN -4.68 dB
REM REPLAYGAIN_TRACK_PEAK 0.988647
INDEX 01 00:00:00
http://www.discogs.com/Fonda-Stevens-Group-Trio/release/2572131
другие релизы
По всем вопросам пишите личное сообщение пользователю M0p94ok.
17:37
195
Нет комментариев. Ваш будет первым!