Вы используете незарегистрированную версию компонента "Вкладки"!

Поиск

(free jazz) [cd] The Fonda-Stevens Group Group - Memphis (2009), FLAC (tracks+.cue), lossless

(free jazz) [cd] The Fonda-Stevens Group Group - Memphis (2009), FLAC (tracks+.cue), lossless
Треклист:
(free jazz) [cd] The Fonda-Stevens Group Group - Memphis (2009), FLAC (tracks+.cue), lossless


The Fonda-Stevens Group Group - Memphis (2009)

Жанр: free jazz
Год выпуска: 2009
Издатель (лейбл):Playscape Recordings / PSR 033108
Формат: FLAC (tracks+.cue)
Битрейт аудио: lossless
Продолжительность 1`01`49
Источник: what.cd
Joe Fonda Bass
Herb Robertson Trumpet
Harvey Sorgen Drums
Michael Jefry Stevens Piano

tracks

1. In The White Cage 5:59
2. For My Brother 6:33
3. Looking For The Lake 5:40
4. Changing Tides 6:34
5. The Path 5:09
6. Yes This Is It 4:14
7. There Is a Very Fine Line Between Your Life and Mine 9:26
8. Whale Majesty 5:10
9. Memphis Ramble 8:Break Song 5:03
10. Break Song 5:03


 
.log
X Lossless Decoder version 20141129 (148.1)
XLD extraction logfile from 2015-02-08 14:18:40 -0500
The Fonda/Stevens Group / Memphis
Used drive : MATSHITA DVD-R UJ-8A8 (revision HB14)
Media type : Pressed CD
Ripper mode : XLD Secure Ripper
Disable audio cache : OK for the drive with a cache less than 1375KiB
Make use of C2 pointers : NO
Read offset correction : 102
Max retry count : 100
Gap status : Analyzed, Appended (except HTOA)
TOC of the extracted CD
Track | Start | Length | Start sector | End sector
---------------------------------------------------------
1 | 00:00:00 | 05:49:58 | 0 | 26232
2 | 05:49:58 | 06:33:35 | 26233 | 55742
3 | 12:23:18 | 05:40:54 | 55743 | 81296
4 | 18:03:72 | 06:34:61 | 81297 | 110907
5 | 24:38:58 | 05:09:22 | 110908 | 134104
6 | 29:48:05 | 04:14:20 | 134105 | 153174
7 | 34:02:25 | 09:26:63 | 153175 | 195687
8 | 43:29:13 | 05:10:48 | 195688 | 218985
9 | 48:39:61 | 08:05:55 | 218986 | 255415
10 | 56:45:41 | 05:03:61 | 255416 | 278201
AccurateRip Summary (DiscID: 00170979-00b90b3f-770e7d0a)
Track 01 : OK (v1, confidence 2/2)
Track 02 : OK (v1, confidence 2/2)
Track 03 : OK (v1, confidence 2/2)
Track 04 : OK (v1, confidence 2/2)
Track 05 : OK (v1, confidence 2/2)
Track 06 : OK (v1, confidence 2/2)
Track 07 : OK (v1, confidence 2/2)
Track 08 : OK (v1, confidence 2/2)
Track 09 : OK (v1, confidence 2/2)
Track 10 : OK (v1, confidence 2/2)
->All tracks accurately ripped.
All Tracks
Album gain : -1.56 dB
Peak : 0.999969
Statistics
Read error : 0
Jitter error (maybe fixed) : 0
Retry sector count : 0
Damaged sector count : 0
Track 01
Filename : /Users/XLD_rips/The Fonda/Stevens Group - Memphis (2009) [FLAC]/01-01 In The Whitecage.flac
Pre-gap length : 00:02:00
Track gain : -1.22 dB
Peak : 0.999939
CRC32 hash (test run) : B0919FD1
CRC32 hash : B0919FD1
CRC32 hash (skip zero) : 8735F24F
AccurateRip v1 signature : CAD86D73
AccurateRip v2 signature : D7DC3151
->Accurately ripped (v1, confidence 2/2)
Statistics
Read error : 0
Jitter error (maybe fixed) : 0
Retry sector count : 0
Damaged sector count : 0
Track 02
Filename : /Users/XLD_rips/The Fonda/Stevens Group - Memphis (2009) [FLAC]/01-02 For My Brother.flac
Pre-gap length : 00:04:00
Track gain : -0.37 dB
Peak : 0.993439
CRC32 hash (test run) : 9306F7CD
CRC32 hash : 9306F7CD
CRC32 hash (skip zero) : 7BCFABD6
AccurateRip v1 signature : 8E6EF90A
AccurateRip v2 signature : 53304D98
->Accurately ripped (v1, confidence 2/2)
Statistics
Read error : 0
Jitter error (maybe fixed) : 0
Retry sector count : 0
Damaged sector count : 0
Track 03
Filename : /Users/XLD_rips/The Fonda/Stevens Group - Memphis (2009) [FLAC]/01-03 Looking For The Lake.flac
Pre-gap length : 00:04:00
Track gain : -1.65 dB
Peak : 0.999969
CRC32 hash (test run) : 1D942192
CRC32 hash : 1D942192
CRC32 hash (skip zero) : A7E2971C
AccurateRip v1 signature : 159D92AB
AccurateRip v2 signature : E44EC8FB
->Accurately ripped (v1, confidence 2/2)
Statistics
Read error : 0
Jitter error (maybe fixed) : 0
Retry sector count : 0
Damaged sector count : 0
Track 04
Filename : /Users/XLD_rips/The Fonda/Stevens Group - Memphis (2009) [FLAC]/01-04 Changing Tides.flac
Pre-gap length : 00:04:00
Track gain : -1.31 dB
Peak : 0.999939
CRC32 hash (test run) : 3F002046
CRC32 hash : 3F002046
CRC32 hash (skip zero) : E2FE42E3
AccurateRip v1 signature : DBF11AB3
AccurateRip v2 signature : D4DDA641
->Accurately ripped (v1, confidence 2/2)
Statistics
Read error : 0
Jitter error (maybe fixed) : 0
Retry sector count : 0
Damaged sector count : 0
Track 05
Filename : /Users/XLD_rips/The Fonda/Stevens Group - Memphis (2009) [FLAC]/01-05 The Path.flac
Pre-gap length : 00:04:00
Track gain : -0.06 dB
Peak : 0.999878
CRC32 hash (test run) : AF664AAC
CRC32 hash : AF664AAC
CRC32 hash (skip zero) : 4A2D66FB
AccurateRip v1 signature : 06EAA089
AccurateRip v2 signature : 5112A6D5
->Accurately ripped (v1, confidence 2/2)
Statistics
Read error : 0
Jitter error (maybe fixed) : 0
Retry sector count : 0
Damaged sector count : 0
Track 06
Filename : /Users/XLD_rips/The Fonda/Stevens Group - Memphis (2009) [FLAC]/01-06 Yes This Is It.flac
Pre-gap length : 00:04:00
Track gain : -1.55 dB
Peak : 0.999969
CRC32 hash (test run) : D6989FA9
CRC32 hash : D6989FA9
CRC32 hash (skip zero) : 420E7DA5
AccurateRip v1 signature : D2B201C6
AccurateRip v2 signature : F1D57D51
->Accurately ripped (v1, confidence 2/2)
Statistics
Read error : 0
Jitter error (maybe fixed) : 0
Retry sector count : 0
Damaged sector count : 0
Track 07
Filename : /Users/XLD_rips/The Fonda/Stevens Group - Memphis (2009) [FLAC]/01-07 There Is A Very Fine Line Between Your Life And Mine.flac
Pre-gap length : 00:04:00
Track gain : -1.59 dB
Peak : 0.999939
CRC32 hash (test run) : 95A1FED9
CRC32 hash : 95A1FED9
CRC32 hash (skip zero) : DCD6665B
AccurateRip v1 signature : 2C84DB39
AccurateRip v2 signature : 6533C1E6
->Accurately ripped (v1, confidence 2/2)
Statistics
Read error : 0
Jitter error (maybe fixed) : 0
Retry sector count : 0
Damaged sector count : 0
Track 08
Filename : /Users/XLD_rips/The Fonda/Stevens Group - Memphis (2009) [FLAC]/01-08 Whale Majesty.flac
Pre-gap length : 00:04:00
Track gain : 2.89 dB
Peak : 0.706879
CRC32 hash (test run) : 25BE71B8
CRC32 hash : 25BE71B8
CRC32 hash (skip zero) : 633E5934
AccurateRip v1 signature : ADF6F446
AccurateRip v2 signature : D0B9CF62
->Accurately ripped (v1, confidence 2/2)
Statistics
Read error : 0
Jitter error (maybe fixed) : 0
Retry sector count : 0
Damaged sector count : 0
Track 09
Filename : /Users/XLD_rips/The Fonda/Stevens Group - Memphis (2009) [FLAC]/01-09 Memphis Ramble.flac
Pre-gap length : 00:04:00
Track gain : -2.74 dB
Peak : 0.999939
CRC32 hash (test run) : 070D3DA7
CRC32 hash : 070D3DA7
CRC32 hash (skip zero) : 045A8566
AccurateRip v1 signature : 446CF6AB
AccurateRip v2 signature : 4939E762
->Accurately ripped (v1, confidence 2/2)
Statistics
Read error : 0
Jitter error (maybe fixed) : 0
Retry sector count : 0
Damaged sector count : 0
Track 10
Filename : /Users/XLD_rips/The Fonda/Stevens Group - Memphis (2009) [FLAC]/01-10 Break Song.flac
Pre-gap length : 00:04:00
Track gain : -2.77 dB
Peak : 0.999939
CRC32 hash (test run) : 3FBC18E7
CRC32 hash : 3FBC18E7
CRC32 hash (skip zero) : 3DA42C41
AccurateRip v1 signature : B0DB9FCA
AccurateRip v2 signature : 72575EC6
->Accurately ripped (v1, confidence 2/2)
Statistics
Read error : 0
Jitter error (maybe fixed) : 0
Retry sector count : 0
Damaged sector count : 0
No errors occurred
End of status report
-----BEGIN XLD SIGNATURE-----
P4Y2mKlOVSji4b8hDFTRXTfCmiqrKCtgF0nv3GxF.9WSOcPcZYFNNi00nI8AoAIcmNDgGiTLYVkdlnV4GvDmf9Q93UwVRJ3RnYmqt6C
-----END XLD SIGNATURE-----
 
.cue
TITLE "Memphis"
PERFORMER "The Fonda/Stevens Group"
REM GENRE "Jazz"
REM DATE "2009"
REM DISCID 770E7D0A
REM REPLAYGAIN_ALBUM_GAIN -1.56 dB
REM REPLAYGAIN_ALBUM_PEAK 0.999969
FILE "01-01 In The Whitecage.flac" WAVE
TRACK 01 AUDIO
TITLE "In The Whitecage"
PERFORMER "The Fonda/Stevens Group"
SONGWRITER "Joe Fonda"
FLAGS DCP
REM REPLAYGAIN_TRACK_GAIN -1.22 dB
REM REPLAYGAIN_TRACK_PEAK 0.999939
INDEX 01 00:00:00
TRACK 02 AUDIO
TITLE "For My Brother"
PERFORMER "The Fonda/Stevens Group"
SONGWRITER "Michael Jefry Stevens"
FLAGS DCP
REM REPLAYGAIN_TRACK_GAIN -0.37 dB
REM REPLAYGAIN_TRACK_PEAK 0.993439
INDEX 00 05:45:58
FILE "01-02 For My Brother.flac" WAVE
INDEX 01 00:00:00
TRACK 03 AUDIO
TITLE "Looking For The Lake"
PERFORMER "The Fonda/Stevens Group"
SONGWRITER "Joe Fonda"
FLAGS DCP
REM REPLAYGAIN_TRACK_GAIN -1.65 dB
REM REPLAYGAIN_TRACK_PEAK 0.999969
INDEX 00 06:29:35
FILE "01-03 Looking For The Lake.flac" WAVE
INDEX 01 00:00:00
TRACK 04 AUDIO
TITLE "Changing Tides"
PERFORMER "The Fonda/Stevens Group"
SONGWRITER "Michael Jefry Stevens"
FLAGS DCP
REM REPLAYGAIN_TRACK_GAIN -1.31 dB
REM REPLAYGAIN_TRACK_PEAK 0.999939
INDEX 00 05:36:54
FILE "01-04 Changing Tides.flac" WAVE
INDEX 01 00:00:00
TRACK 05 AUDIO
TITLE "The Path"
PERFORMER "The Fonda/Stevens Group"
SONGWRITER "Joe Fonda"
FLAGS DCP
REM REPLAYGAIN_TRACK_GAIN -0.06 dB
REM REPLAYGAIN_TRACK_PEAK 0.999878
INDEX 00 06:30:61
FILE "01-05 The Path.flac" WAVE
INDEX 01 00:00:00
TRACK 06 AUDIO
TITLE "Yes This Is It!"
PERFORMER "The Fonda/Stevens Group"
SONGWRITER "Joe Fonda"
FLAGS DCP
REM REPLAYGAIN_TRACK_GAIN -1.55 dB
REM REPLAYGAIN_TRACK_PEAK 0.999969
INDEX 00 05:05:22
FILE "01-06 Yes This Is It.flac" WAVE
INDEX 01 00:00:00
TRACK 07 AUDIO
TITLE "There Is A Very Fine Line Between Your Life And Mine"
PERFORMER "The Fonda/Stevens Group"
SONGWRITER "Joe Fonda"
FLAGS DCP
REM REPLAYGAIN_TRACK_GAIN -1.59 dB
REM REPLAYGAIN_TRACK_PEAK 0.999939
INDEX 00 04:10:20
FILE "01-07 There Is A Very Fine Line Between Your Life And Mine.flac" WAVE
INDEX 01 00:00:00
TRACK 08 AUDIO
TITLE "Whale Majesty"
PERFORMER "The Fonda/Stevens Group"
SONGWRITER "Michael Jefry Stevens"
FLAGS DCP
REM REPLAYGAIN_TRACK_GAIN 2.89 dB
REM REPLAYGAIN_TRACK_PEAK 0.706879
INDEX 00 09:22:63
FILE "01-08 Whale Majesty.flac" WAVE
INDEX 01 00:00:00
TRACK 09 AUDIO
TITLE "Memphis Ramble"
PERFORMER "The Fonda/Stevens Group"
SONGWRITER "Michael Jefry Stevens"
FLAGS DCP
REM REPLAYGAIN_TRACK_GAIN -2.74 dB
REM REPLAYGAIN_TRACK_PEAK 0.999939
INDEX 00 05:06:48
FILE "01-09 Memphis Ramble.flac" WAVE
INDEX 01 00:00:00
TRACK 10 AUDIO
TITLE "Break Song"
PERFORMER "The Fonda/Stevens Group"
SONGWRITER "Michael Jefry Stevens"
FLAGS DCP
REM REPLAYGAIN_TRACK_GAIN -2.77 dB
REM REPLAYGAIN_TRACK_PEAK 0.999939
INDEX 00 08:01:55
FILE "01-10 Break Song.flac" WAVE
INDEX 01 00:00:00
По всем вопросам пишите личное сообщение пользователю M0p94ok.
17:37
204
Нет комментариев. Ваш будет первым!