Вы используете незарегистрированную версию компонента "Вкладки"!

Поиск

(Free Jazz) [CD] The Byard Lancaster Unit - Live At Macalester College - 2008, FLAC (image+.cue), lossless

(Free Jazz) [CD] The Byard Lancaster Unit - Live At Macalester College - 2008, FLAC (image+.cue), lossless
Треклист:
The Byard Lancaster Unit / Live At Macalester College
Жанр: Free Jazz
Носитель: CD
Страна-производитель диска: US
Год издания: 2008
Издатель (лейбл): Porter Records
Номер по каталогу: PRCD-1502
Аудиокодек: FLAC (*.flac)
Тип рипа: image+.cue
Битрейт аудио: lossless
Продолжительность: 61:12
Источник (релизер): CD
Наличие сканов в содержимом раздачи: нет
Треклист:
1. 1324 16:30
2. Last Summer 3:15
3. War World 6:30
4. Live At Macalester 10:30
5. World In Me 9:01
6. Thought 15:01
 
Лог создания рипа
Exact Audio Copy V1.0 beta 2 from 29. April 2011
EAC extraction logfile from 26. May 2014, 11:41
Byard Lancaster Unit / Live At Macalester College
Used drive : Optiarc DVD RW AD-7170A Adapter: 0 ID: 0
Read mode : Secure
Utilize accurate stream : Yes
Defeat audio cache : Yes
Make use of C2 pointers : No
Read offset correction : 48
Overread into Lead-In and Lead-Out : No
Fill up missing offset samples with silence : Yes
Delete leading and trailing silent blocks : No
Null samples used in CRC calculations : Yes
Used interface : Native Win32 interface for Win NT & 2000
Used output format : User Defined Encoder
Selected bitrate : 320 kBit/s
Quality : High
Add ID3 tag : No
Command line compressor : C:\Program Files\Exact Audio Copy\Flac\flac.exe
Additional command line options : -V -8 -T "Date=%year%" -T "Genre=%genre%" %source%
TOC of the extracted CD
Track | Start | Length | Start sector | End sector
---------------------------------------------------------
1 | 0:00.00 | 16:29.26 | 0 | 74200
2 | 16:29.26 | 3:25.43 | 74201 | 89618
3 | 19:54.69 | 6:35.45 | 89619 | 119288
4 | 26:30.39 | 10:38.61 | 119289 | 167199
5 | 37:09.25 | 9:01.52 | 167200 | 207826
6 | 46:11.02 | 15:01.12 | 207827 | 275413
Range status and errors
Selected range
Filename K:\ЕАС\Byard Lancaster Unit - Live At Macalester College.wav
Peak level 98.3 %
Extraction speed 2.0 X
Range quality 100.0 %
Test CRC 2696A1AA
Copy CRC 2696A1AA
Copy OK
No errors occurred
AccurateRip summary
Track 1 accurately ripped (confidence 1) [885C2B60] (AR v2)
Track 2 accurately ripped (confidence 1) [1F07BEE2] (AR v2)
Track 3 accurately ripped (confidence 1) [6BC22892] (AR v2)
Track 4 accurately ripped (confidence 1) [81D83B5C] (AR v2)
Track 5 accurately ripped (confidence 1) [8EE639E7] (AR v2)
Track 6 accurately ripped (confidence 1) [3B78C377] (AR v2)
All tracks accurately ripped
End of status report
==== Log checksum 74417CCF612791900D4F4FFE32C51612E4AA23007FB2B04E257FED4A7098C2B6 ====
 
Содержание индексной карты (.CUE)
REM GENRE Jazz
REM DATE 2008
REM DISCID 520E5806
REM COMMENT "ExactAudioCopy v1.0b2"
PERFORMER "Byard Lancaster Unit"
TITLE "Live At Macalester College "
FILE "Byard Lancaster Unit - Live At Macalester College.flac" WAVE
TRACK 01 AUDIO
TITLE "1324 "
PERFORMER "Byard Lancaster Unit"
ISRC 000000000000
FLAGS DCP
INDEX 01 00:00:00
TRACK 02 AUDIO
TITLE "Last Summer "
PERFORMER "Byard Lancaster Unit"
ISRC 000000000000
FLAGS DCP
INDEX 01 16:29:26
TRACK 03 AUDIO
TITLE "War World "
PERFORMER "Byard Lancaster Unit"
ISRC 000000000000
FLAGS DCP
INDEX 01 19:54:69
TRACK 04 AUDIO
TITLE "Live At Macalester"
PERFORMER "Byard Lancaster Unit"
ISRC 000000000000
FLAGS DCP
INDEX 01 26:30:39
TRACK 05 AUDIO
TITLE "World In Me "
PERFORMER "Byard Lancaster Unit"
ISRC 000000000000
FLAGS DCP
INDEX 01 37:09:25
TRACK 06 AUDIO
TITLE "Thought "
PERFORMER "Byard Lancaster Unit"
ISRC 000000000000
FLAGS DCP
INDEX 01 46:11:02
Доп. информация: Reissue of a private recording on Dogtown Records from 1972 with two bonus tracks (5 and 6) recorded by the J.R. Mitchell Experimental Unit in 1973 in Boston, MA. Additional uncredited musicians on these tracks are unknown. Track 1 recorded 1970 in Boston, MA, 2 to 4 recorded live at Macalester College, St. Paul, MN, 1971.
 
Состав
Bass – Calvin Hill (tracks: 1, 5, 6), Jerome Hunter (tracks: 2 to 4)
Bass [Electric] – Paul Morrison (tracks: 1)
Congas, Percussion – Lester Lumley (tracks: 1)
Horns – Byard Lancaster (tracks: 1 to 4)
Percussion – J.R. Mitchell
Piano – Sid Simmons (tracks: 2 to 4)
Saxophone [Alto] – Byard Lancaster (tracks: 5, 6)
По всем вопросам пишите личное сообщение пользователю M0p94ok.
02:16
156
Нет комментариев. Ваш будет первым!