Вы используете незарегистрированную версию компонента "Вкладки"!

Поиск

(Avant-Garde, Free Improvisation, NotTwo Records) [CD] Variable Density Sound Orchestra (Garrison Fewell, John Tchicai, Roy Campbell, Steve Swell, Dmitry Ishenko, Reggie Nicholson) - Evolving Strategies - 2014, FLAC (tracks+.cue), lossless

(Avant-Garde, Free Improvisation, NotTwo Records) [CD] Variable Density Sound Orchestra (Garrison Fewell, John Tchicai, Roy Campbell, Steve Swell, Dmitry Ishenko, Reggie Nicholson) - Evolving Strategies - 2014, FLAC (tracks+.cue), lossless
Треклист:
Variable Density Sound Orchestra / Evolving Strategies
Жанр: Avant-Garde, Free Improvisation, NotTwo Records
Носитель: CD
Страна-производитель диска: Poland
Год издания: 2014
Издатель (лейбл): NotTwo Records
Номер по каталогу: MW911-2
Аудиокодек: FLAC (*.flac)
Тип рипа: tracks+.cue
Битрейт аудио: lossless
Продолжительность: 51:39
Источник (релизер): я
Наличие сканов в содержимом раздачи: да
Треклист:
1. Mystical Realities (Steve Swell) 9:03
2. Evolving Strategies (Garrison Fewell) 3:42
3. Return and Breathe (John Tchicai) 8:23
4. Thoughts for Dixon (Garrison Fewell) 5:08
5. Voyage from Ra (Garrison Fewell) 7:18
6. Revolving Strategies (Garrison Fewell) 2:34
7. Heart Is Only a Part (John Tchicai) 3:23
8. Mystical Realities: Aftermath (Steve Swell) 12:08
Recorded January 3, 2012 at 58 North 6 Media Labs, Brooklyn, NY.
Garrison Fewell – Guitar, Violin Bow, Bottleneck Slide
John Tchicai – Tenor Saxophone, Flute
Roy Campbell, Jr. – Trumpet, Pocket Trumpet, Flugelhorn, Flute
Steve Swell – Trombone
Dmitry Ishenko – Bass
Reggie Nicholson – Drums
 
Лог создания рипа
Exact Audio Copy V1.0 beta 3 from 29. August 2011
EAC extraction logfile from 25. May 2014, 13:10
Variable Density Sound Orchestra / Evolving Strategies
Used drive : SlimtypeeNAU508 5 Adapter: 1 ID: 0
Read mode : Secure
Utilize accurate stream : Yes
Defeat audio cache : Yes
Make use of C2 pointers : No
Read offset correction : 6
Overread into Lead-In and Lead-Out : No
Fill up missing offset samples with silence : Yes
Delete leading and trailing silent blocks : No
Null samples used in CRC calculations : Yes
Used interface : Native Win32 interface for Win NT & 2000
Gap handling : Appended to previous track
Used output format : User Defined Encoder
Selected bitrate : 768 kBit/s
Quality : High
Add ID3 tag : No
Command line compressor : C:\Program Files (x86)\Exact Audio Copy\Flac\flac.exe
Additional command line options : -8 -V -T "ARTIST=%artist%" -T "TITLE=%title%" -T "ALBUM=%albumtitle%" -T "DATE=%year%" -T "TRACKNUMBER=%tracknr%" -T "TOTALTRACKS=%numtracks%" -T "GENRE=%genre%" -T "ALBUMARTIST=%albumartist%" -T "ALBUM ARTIST=%albumartist%" -T "COMMENT=EAC Secure Mode, Test & Copy, AccurateRip, FLAC -8" %source%
TOC of the extracted CD
Track | Start | Length | Start sector | End sector
---------------------------------------------------------
1 | 0:00.00 | 9:02.62 | 0 | 40711
2 | 9:02.62 | 3:41.72 | 40712 | 57358
3 | 12:44.59 | 8:23.10 | 57359 | 95093
4 | 21:07.69 | 5:08.21 | 95094 | 118214
5 | 26:16.15 | 7:17.66 | 118215 | 151055
6 | 33:34.06 | 2:34.23 | 151056 | 162628
7 | 36:08.29 | 3:22.49 | 162629 | 177827
8 | 39:31.03 | 12:07.39 | 177828 | 232391
Track 1
Filename C:\EAC rips\01 - Mystical Realities.wav
Pre-gap length 0:00:02.00
Peak level 100.0 %
Extraction speed 2.4 X
Track quality 99.9 %
Test CRC 64BB90E1
Copy CRC 64BB90E1
Track not present in AccurateRip database
Copy OK
Track 2
Filename C:\EAC rips\02 - Evolving Strategies.wav
Pre-gap length 0:00:01.32
Peak level 98.4 %
Extraction speed 2.7 X
Track quality 100.0 %
Test CRC B0EFB85F
Copy CRC B0EFB85F
Track not present in AccurateRip database
Copy OK
Track 3
Filename C:\EAC rips\03 - Return and Breathe.wav
Pre-gap length 0:00:02.74
Peak level 99.2 %
Extraction speed 3.2 X
Track quality 100.0 %
Test CRC F7D6DCA7
Copy CRC F7D6DCA7
Track not present in AccurateRip database
Copy OK
Track 4
Filename C:\EAC rips\04 - Thoughts for Dixon.wav
Pre-gap length 0:00:04.27
Peak level 99.4 %
Extraction speed 3.4 X
Track quality 100.0 %
Test CRC D68090FA
Copy CRC D68090FA
Track not present in AccurateRip database
Copy OK
Track 5
Filename C:\EAC rips\05 - Voyage from Ra.wav
Pre-gap length 0:00:05.06
Peak level 98.3 %
Extraction speed 3.2 X
Track quality 99.9 %
Test CRC 6605F945
Copy CRC 6605F945
Track not present in AccurateRip database
Copy OK
Track 6
Filename C:\EAC rips\06 - Revolving Strategies.wav
Pre-gap length 0:00:03.41
Peak level 97.0 %
Extraction speed 3.4 X
Track quality 100.0 %
Test CRC 26257F98
Copy CRC 26257F98
Track not present in AccurateRip database
Copy OK
Track 7
Filename C:\EAC rips\07 - Heart Is Only a Part.wav
Pre-gap length 0:00:03.67
Peak level 98.5 %
Extraction speed 3.7 X
Track quality 100.0 %
Test CRC 46397B29
Copy CRC 46397B29
Track not present in AccurateRip database
Copy OK
Track 8
Filename C:\EAC rips\08 - Mystical Realities - Aftermath.wav
Pre-gap length 0:00:00.72
Peak level 100.0 %
Extraction speed 4.5 X
Track quality 100.0 %
Test CRC C3AC23A3
Copy CRC C3AC23A3
Track not present in AccurateRip database
Copy OK
None of the tracks are present in the AccurateRip database
No errors occurred
End of status report
---- CUETools DB Plugin V2.1.4
[CTDB TOCID: 7.OsooxnOxTcB7bwzB5rVE6WYS4-] disk not present in database
Submit result: 7.OsooxnOxTcB7bwzB5rVE6WYS4- has been uploaded
==== Log checksum 8EB603C98C10F5E81D2DF006FBCD72F6AD4D27B71A29F06E13CD5719C150F97F ====
 
Содержание индексной карты (.CUE)
REM GENRE Jazz
REM DATE 2014
REM DISCID 6B0C1A08
REM COMMENT "ExactAudioCopy v1.0b3"
PERFORMER "Variable Density Sound Orchestra"
TITLE "Evolving Strategies"
FILE "01 - Mystical Realities.wav" WAVE
TRACK 01 AUDIO
TITLE "Mystical Realities"
PERFORMER "Variable Density Sound Orchestra"
INDEX 01 00:00:00
TRACK 02 AUDIO
TITLE "Evolving Strategies"
PERFORMER "Variable Density Sound Orchestra"
INDEX 00 09:01:30
FILE "02 - Evolving Strategies.wav" WAVE
INDEX 01 00:00:00
TRACK 03 AUDIO
TITLE "Return and Breathe"
PERFORMER "Variable Density Sound Orchestra"
INDEX 00 03:38:73
FILE "03 - Return and Breathe.wav" WAVE
INDEX 01 00:00:00
TRACK 04 AUDIO
TITLE "Thoughts for Dixon"
PERFORMER "Variable Density Sound Orchestra"
INDEX 00 08:18:58
FILE "04 - Thoughts for Dixon.wav" WAVE
INDEX 01 00:00:00
TRACK 05 AUDIO
TITLE "Voyage from Ra"
PERFORMER "Variable Density Sound Orchestra"
INDEX 00 05:03:15
FILE "05 - Voyage from Ra.wav" WAVE
INDEX 01 00:00:00
TRACK 06 AUDIO
TITLE "Revolving Strategies"
PERFORMER "Variable Density Sound Orchestra"
INDEX 00 07:14:25
FILE "06 - Revolving Strategies.wav" WAVE
INDEX 01 00:00:00
TRACK 07 AUDIO
TITLE "Heart Is Only a Part"
PERFORMER "Variable Density Sound Orchestra"
INDEX 00 02:30:31
FILE "07 - Heart Is Only a Part.wav" WAVE
INDEX 01 00:00:00
TRACK 08 AUDIO
TITLE "Mystical Realities: Aftermath"
PERFORMER "Variable Density Sound Orchestra"
INDEX 00 03:21:52
FILE "08 - Mystical Realities - Aftermath.wav" WAVE
INDEX 01 00:00:00
По всем вопросам пишите личное сообщение пользователю M0p94ok.
02:15
191
Нет комментариев. Ваш будет первым!