Поиск

(free jazz) [cd] Stefano Ferrian & Simone Quatrana - A-Septic 2014, FLAC (tracks+.cue), lossless

(free jazz) [cd] Stefano Ferrian & Simone Quatrana - A-Septic 2014, FLAC (tracks+.cue), lossless
(free jazz) [cd] Stefano Ferrian & Simone Quatrana - A-Septic 2014, FLAC (tracks+.cue), lossless


Stefano Ferrian & Simone Quatrana - A-Septic 2014

Жанр: free jazz
Год выпуска: 2014
Издатель (лейбл):dEN / K001
Формат: FLAC (tracks+.cue)
Битрейт аудио: lossless
Продолжительность 57`53
Источник: what.cd
Stefano Ferrian - saxophones
Simone Quatrana - piano
Recorded at Simone homestudio in Frosinone, Italy, on September 27th and 28th, 2014 By Stefano Ferrian

tracks

1. The Sound Dome 05:46
2. A Space-Time Framework 09:44
3. Disharmonic Evolution 01:23
4. Mater(ico) 10:00
5. Remini_Science 10:54
6. The Moss 02:51
7. A Globe into Sound 11:12


 
.log
X Lossless Decoder version 20141129a (148.2)
XLD extraction logfile from 2015-10-28 21:18:34 +0300
A-Septic / A-Septic
Used drive : HL-DT-ST DVDRW GX30N (revision RP09)
Media type : Pressed CD
Ripper mode : XLD Secure Ripper
Disable audio cache : OK for the drive with a cache less than 1375KiB
Make use of C2 pointers : NO
Read offset correction : 6
Max retry count : 400
Gap status : Analyzed, Appended (except HTOA)
TOC of the extracted CD
Track | Start | Length | Start sector | End sector
---------------------------------------------------------
1 | 00:00:00 | 05:46:50 | 0 | 25999
2 | 05:46:50 | 09:44:18 | 26000 | 69817
3 | 15:30:68 | 01:23:51 | 69818 | 76093
4 | 16:54:44 | 10:00:51 | 76094 | 121144
5 | 26:55:20 | 10:54:44 | 121145 | 170238
6 | 37:49:64 | 02:51:00 | 170239 | 183063
7 | 40:40:64 | 11:12:25 | 183064 | 233488
AccurateRip Summary
Disc not found in AccurateRip DB.
All Tracks
Album gain : -5.10 dB
Peak : 0.977325
Statistics
Read error : 0
Jitter error (maybe fixed) : 0
Retry sector count : 0
Damaged sector count : 0
Track 01
Filename : /Users/BK/Music/Grabbed/A-Septic/F 2014 - A-Septic/01 - The Sound Dome.flac
Pre-gap length : 00:02:00
Track gain : -5.54 dB
Peak : 0.977325
CRC32 hash (test run) : 12468A37
CRC32 hash : 12468A37
CRC32 hash (skip zero) : 00209629
AccurateRip v1 signature : 3A4DCF8F
AccurateRip v2 signature : 43C51158
->Track not present in AccurateRip database.
Statistics
Read error : 0
Jitter error (maybe fixed) : 0
Retry sector count : 0
Damaged sector count : 0
Track 02
Filename : /Users/BK/Music/Grabbed/A-Septic/F 2014 - A-Septic/02 - A Space-Time Framework.flac
Track gain : -4.52 dB
Peak : 0.977295
CRC32 hash (test run) : 93B98E90
CRC32 hash : 93B98E90
CRC32 hash (skip zero) : D72A1628
AccurateRip v1 signature : 7BA18AC5
AccurateRip v2 signature : 290EE2A7
->Track not present in AccurateRip database.
Statistics
Read error : 0
Jitter error (maybe fixed) : 0
Retry sector count : 0
Damaged sector count : 0
Track 03
Filename : /Users/BK/Music/Grabbed/A-Septic/F 2014 - A-Septic/03 - Disharmonic Evolution.flac
Track gain : -6.30 dB
Peak : 0.977295
CRC32 hash (test run) : 36C79F5C
CRC32 hash : 36C79F5C
CRC32 hash (skip zero) : 96996357
AccurateRip v1 signature : F3589A5C
AccurateRip v2 signature : FDA97031
->Track not present in AccurateRip database.
Statistics
Read error : 0
Jitter error (maybe fixed) : 0
Retry sector count : 0
Damaged sector count : 0
Track 04
Filename : /Users/BK/Music/Grabbed/A-Septic/F 2014 - A-Septic/04 - Mater (ICO).flac
Track gain : -5.53 dB
Peak : 0.977325
CRC32 hash (test run) : FBBC0442
CRC32 hash : FBBC0442
CRC32 hash (skip zero) : BC593A62
AccurateRip v1 signature : D75F1283
AccurateRip v2 signature : 78426B2B
->Track not present in AccurateRip database.
Statistics
Read error : 0
Jitter error (maybe fixed) : 0
Retry sector count : 0
Damaged sector count : 0
Track 05
Filename : /Users/BK/Music/Grabbed/A-Septic/F 2014 - A-Septic/05 - Remini & Science.flac
Track gain : -4.95 dB
Peak : 0.977295
CRC32 hash (test run) : E04930E6
CRC32 hash : E04930E6
CRC32 hash (skip zero) : 7DF2A738
AccurateRip v1 signature : 2E3818E7
AccurateRip v2 signature : E8A675C7
->Track not present in AccurateRip database.
Statistics
Read error : 0
Jitter error (maybe fixed) : 0
Retry sector count : 0
Damaged sector count : 0
Track 06
Filename : /Users/BK/Music/Grabbed/A-Septic/F 2014 - A-Septic/06 - The Moss.flac
Track gain : -5.04 dB
Peak : 0.977295
CRC32 hash (test run) : A6889F73
CRC32 hash : A6889F73
CRC32 hash (skip zero) : 896E6E3C
AccurateRip v1 signature : 9E3E9036
AccurateRip v2 signature : F7C484CF
->Track not present in AccurateRip database.
Statistics
Read error : 0
Jitter error (maybe fixed) : 0
Retry sector count : 0
Damaged sector count : 0
Track 07
Filename : /Users/BK/Music/Grabbed/A-Septic/F 2014 - A-Septic/07 - A Globe into Sound.flac
Track gain : -4.72 dB
Peak : 0.977325
CRC32 hash (test run) : 51FA3685
CRC32 hash : 51FA3685
CRC32 hash (skip zero) : D6B8D241
AccurateRip v1 signature : CD80FF7C
AccurateRip v2 signature : 90768F96
->Track not present in AccurateRip database.
Statistics
Read error : 0
Jitter error (maybe fixed) : 0
Retry sector count : 0
Damaged sector count : 0
No errors occurred
End of status report
-----BEGIN XLD SIGNATURE-----
vE_WiISTBkW82sIdLCszIlb4K4I2gWZjDszoYH6gAbQAkN_STkbFRyjUUkV7.B_IqT9PyXee.r9bpZGhJrKGKxUI_8ZB03QCOFR2Yzu
-----END XLD SIGNATURE-----
 
.cue
REM GENRE Free Jazz
REM DATE 2014
REM DISCID 4E0C2907
PERFORMER "Stefano Ferrian & Simone Quatrana"
TITLE "A-Septic"
REM REPLAYGAIN_ALBUM_GAIN -5.10 dB
REM REPLAYGAIN_ALBUM_PEAK 0.977325
FILE "01 - The Sound Dome.flac" WAVE
TRACK 01 AUDIO
TITLE "The Sound Dome"
PERFORMER "Stefano Ferrian & Simone Quatrana"
REM REPLAYGAIN_TRACK_GAIN -5.54 dB
REM REPLAYGAIN_TRACK_PEAK 0.977325
INDEX 01 00:00:00
FILE "02 - A Space-Time Framework.flac" WAVE
TRACK 02 AUDIO
TITLE "A Space-Time Framework"
PERFORMER "Stefano Ferrian & Simone Quatrana"
REM REPLAYGAIN_TRACK_GAIN -4.52 dB
REM REPLAYGAIN_TRACK_PEAK 0.977295
INDEX 01 00:00:00
FILE "03 - Disharmonic Evolution.flac" WAVE
TRACK 03 AUDIO
TITLE "Disharmonic Evolution"
PERFORMER "Stefano Ferrian & Simone Quatrana"
REM REPLAYGAIN_TRACK_GAIN -6.30 dB
REM REPLAYGAIN_TRACK_PEAK 0.977295
INDEX 01 00:00:00
FILE "04 - Mater (ICO).flac" WAVE
TRACK 04 AUDIO
TITLE "Mater (ICO)"
PERFORMER "Stefano Ferrian & Simone Quatrana"
REM REPLAYGAIN_TRACK_GAIN -5.53 dB
REM REPLAYGAIN_TRACK_PEAK 0.977325
INDEX 01 00:00:00
FILE "05 - Remini & Science.flac" WAVE
TRACK 05 AUDIO
TITLE "Remini + Science"
PERFORMER "Stefano Ferrian & Simone Quatrana"
REM REPLAYGAIN_TRACK_GAIN -4.95 dB
REM REPLAYGAIN_TRACK_PEAK 0.977295
INDEX 01 00:00:00
FILE "06 - The Moss.flac" WAVE
TRACK 06 AUDIO
TITLE "The Moss"
PERFORMER "Stefano Ferrian & Simone Quatrana"
REM REPLAYGAIN_TRACK_GAIN -5.04 dB
REM REPLAYGAIN_TRACK_PEAK 0.977295
INDEX 01 00:00:00
FILE "07 - A Globe into Sound.flac" WAVE
TRACK 07 AUDIO
TITLE "A Globe into Sound"
PERFORMER "Stefano Ferrian & Simone Quatrana"
REM REPLAYGAIN_TRACK_GAIN -4.72 dB
REM REPLAYGAIN_TRACK_PEAK 0.977325
INDEX 01 00:00:00

другие релизы
22:48
265
Нет комментариев. Ваш будет первым!