Поиск

(Avant-Garde Jazz, Free Improvisation) [CD] Paul Dunmall, John Adams, Mark Sanders - Totally Fried Up - 1999, FLAC (tracks+.cue), lossless

(Avant-Garde Jazz, Free Improvisation) [CD] Paul Dunmall, John Adams, Mark Sanders - Totally Fried Up - 1999, FLAC (tracks+.cue), lossless
Paul Dunmall, John Adams, Mark Sanders / Totally Fried Up
Жанр: Avant-Garde Jazz, Free Improvisation
Носитель: CD
Страна-производитель диска (релиза): UK
Год издания: 1999
Издатель (лейбл): Slam Productions
Номер по каталогу: SLAMCD 235
Аудиокодек: FLAC (*.flac)
Тип рипа: tracks+.cue
Битрейт аудио: lossless
Продолжительность: 50:41
Источник (релизер): cd
Наличие сканов в содержимом раздачи: нет
Треклист:
1. Totally Fried Up 2:12
2. Samskaras 15:40
3. The Illuminated Man 16:52
4. Captured A Rapture 5:20
5. Homunculus 10:37
 
Лог создания рипа
Exact Audio Copy V1.0 beta 3 from 29. August 2011
EAC extraction logfile from 7. November 2016, 13:05
Paul Dunmall, John Adams, Mark Sanders / Totally Fried Up
Used drive : ASUS DRW-24F1ST a Adapter: 0 ID: 0
Read mode : Secure
Utilize accurate stream : Yes
Defeat audio cache : Yes
Make use of C2 pointers : No
Read offset correction : 6
Overread into Lead-In and Lead-Out : No
Fill up missing offset samples with silence : Yes
Delete leading and trailing silent blocks : No
Null samples used in CRC calculations : Yes
Used interface : Native Win32 interface for Win NT & 2000
Gap handling : Appended to previous track
Used output format : User Defined Encoder
Selected bitrate : 320 kBit/s
Quality : High
Add ID3 tag : No
Command line compressor : D:\Programs\Exact Audio Copy\Flac\flac.exe
Additional command line options : -V -8 -T "Genre=%genre%" -T "Artist=%artist%" -T "Title=%title%" -T "Album=%albumtitle%" -T "Date=%year%" -T "Tracknumber=%tracknr%" -T "Comment=%comment%" %source%
TOC of the extracted CD
Track | Start | Length | Start sector | End sector
---------------------------------------------------------
1 | 0:00.00 | 2:12.08 | 0 | 9907
2 | 2:12.08 | 15:40.12 | 9908 | 80419
3 | 17:52.20 | 16:51.55 | 80420 | 156299
4 | 34:44.00 | 5:19.70 | 156300 | 180294
5 | 40:03.70 | 10:36.51 | 180295 | 228045
Track 1
Filename D:\EAC\01 Totally Fried Up.wav
Pre-gap length 0:00:02.00
Peak level 98.8 %
Extraction speed 3.1 X
Track quality 99.9 %
Test CRC 4D30C987
Copy CRC 4D30C987
Accurately ripped (confidence 1) [A18FC10B] (AR v1)
Copy OK
Track 2
Filename D:\EAC\02 Samskaras.wav
Peak level 98.8 %
Extraction speed 5.7 X
Track quality 100.0 %
Test CRC 8C5A61DA
Copy CRC 8C5A61DA
Cannot be verified as accurate (confidence 1) [BF42BF1C], AccurateRip returned [B921C316] (AR v2)
Copy OK
Track 3
Filename D:\EAC\03 The Illuminated Man.wav
Peak level 98.8 %
Extraction speed 7.4 X
Track quality 100.0 %
Test CRC 6C704541
Copy CRC 0C569E2A
Cannot be verified as accurate (confidence 1) [51A8ADAA], AccurateRip returned [0093D0F2] (AR v2)
Copy OK
Track 4
Filename D:\EAC\04 Captured A Rapture.wav
Peak level 45.0 %
Extraction speed 7.5 X
Track quality 100.0 %
Test CRC A5E36E2D
Copy CRC A5E36E2D
Accurately ripped (confidence 1) [6A6BE8A2] (AR v1)
Copy OK
Track 5
Filename D:\EAC\05 Homunculus.wav
Peak level 98.8 %
Extraction speed 8.6 X
Track quality 100.0 %
Test CRC ADC215E4
Copy CRC ADC215E4
Accurately ripped (confidence 1) [63D9F16B] (AR v1)
Copy OK
3 трек(и) скопированы точно
2 трек(и) не удалось проверить на точность
Some tracks could not be verified as accurate
No errors occurred
End of status report
==== Log checksum F0A4D906306E6D73739432D51F45625F0668BD805C44AD4924222B1960841E5E ====
 
Содержание индексной карты (.CUE)
REM GENRE Jazz
REM DATE 1999
REM DISCID 310BE005
REM COMMENT "ExactAudioCopy v1.0b3"
PERFORMER "Paul Dunmall, John Adams, Mark Sanders"
TITLE "Totally Fried Up "
FILE "01 Totally Fried Up.wav" WAVE
TRACK 01 AUDIO
TITLE "Totally Fried Up "
PERFORMER "Paul Dunmall, John Adams, Mark Sanders"
INDEX 01 00:00:00
FILE "02 Samskaras.wav" WAVE
TRACK 02 AUDIO
TITLE "Samskaras"
PERFORMER "Paul Dunmall, John Adams, Mark Sanders"
INDEX 01 00:00:00
FILE "03 The Illuminated Man.wav" WAVE
TRACK 03 AUDIO
TITLE "The Illuminated Man"
PERFORMER "Paul Dunmall, John Adams, Mark Sanders"
INDEX 01 00:00:00
FILE "04 Captured A Rapture.wav" WAVE
TRACK 04 AUDIO
TITLE "Captured A Rapture"
PERFORMER "Paul Dunmall, John Adams, Mark Sanders"
INDEX 01 00:00:00
FILE "05 Homunculus.wav" WAVE
TRACK 05 AUDIO
TITLE "Homunculus"
PERFORMER "Paul Dunmall, John Adams, Mark Sanders"
INDEX 01 00:00:00
Доп. информация: Recorded on 15 March 1998 at Gateway Studios, Kingston, U.K.
 
Состав
Drums – Mark Sanders
Guitar – John Adams
Painting [Paintings] – Paul Dunmall
Tenor Saxophone – Paul Dunmall
22:48
259
Нет комментариев. Ваш будет первым!