Вы используете незарегистрированную версию компонента "Вкладки"!

Поиск

(free jazz) [cd] Simon Nabatov & Tom Rainer - Steady Now (2005), FLAC (tracks+.cue), lossless

(free jazz) [cd] Simon Nabatov & Tom Rainer - Steady Now (2005), FLAC (tracks+.cue), lossless
Треклист:
(free jazz) [cd] Simon Nabatov & Tom Rainer - Steady Now (2005), FLAC (tracks+.cue), lossless


Simon Nabatov & Tom Rainer - Steady Now (2005)

Жанр: free jazz
Год выпуска: 2005
Издатель (лейбл):Leo Records /CD LR 463
Формат: FLAC (tracks+.cue)
Битрейт аудио: lossless
Продолжительность 1`09`34
Источник: what.cd

tracks

1 Open Air 4:48
2 Cold Cuts 9:22
3 Não Olhe Para Trás 8:41
4 Bird's Eye View 6:56
5 Agrinte 6:16
6 Crackle 'n' Pop 5:52
7 Four Fofo 5:26
8 Vamp Vitale 7:35
9 Fare Well 6:14


 
.log
Exact Audio Copy V1.0 beta 3 from 29. August 2011
EAC extraction logfile from 27. July 2015, 23:35
Simon Nabatov & Tom Rainey / Steady Now
Used drive : HL-DT-STDVDRAM SP80NB60 Adapter: 0 ID: 0
Read mode : Burst
Read offset correction : 0
Overread into Lead-In and Lead-Out : No
Fill up missing offset samples with silence : Yes
Delete leading and trailing silent blocks : No
Null samples used in CRC calculations : Yes
Used interface : Native Win32 interface for Win NT & 2000
Gap handling : Appended to previous track
Used output format : User Defined Encoder
Selected bitrate : 1024 kBit/s
Quality : High
Add ID3 tag : No
Command line compressor : C:\Program Files (x86)\FLAC\flac.exe
Additional command line options : -8 -V -T "ARTIST=%artist%" -T "TITLE=%title%" -T "ALBUM=%albumtitle%" -T "DATE=%year%" -T "TRACKNUMBER=%tracknr%" -T "GENRE=%genre%" -T "PERFORMER=%albuminterpret%" -T "COMPOSER=%composer%" %haslyrics%--tag-from-file=LYRICS="%lyricsfile%"%haslyrics% -T "ALBUMARTIST=%albumartist%" -T "DISCNUMBER=%cdnumber%" -T "TOTALDISCS=%totalcds%" -T "TOTALTRACKS=%numtracks%" -T "COMMENT=%comment%" %source% -o %dest%
TOC of the extracted CD
Track | Start | Length | Start sector | End sector
---------------------------------------------------------
1 | 0:00.00 | 4:52.43 | 0 | 21942
2 | 4:52.43 | 9:23.43 | 21943 | 64210
3 | 14:16.11 | 8:51.11 | 64211 | 104046
4 | 23:07.22 | 6:53.38 | 104047 | 135059
5 | 30:00.60 | 6:19.24 | 135060 | 163508
6 | 36:20.09 | 5:48.51 | 163509 | 189659
7 | 42:08.60 | 5:29.18 | 189660 | 214352
8 | 47:38.03 | 7:37.43 | 214353 | 248670
9 | 55:15.46 | 14:17.71 | 248671 | 313016
Track 1
Filename C:\EAC Rips\Simon Nabatov & Tom Rainer - Steady Now (2005) [FLAC]\01 Open Air.wav
Pre-gap length 0:00:02.00
Peak level 96.6 %
Extraction speed 10.1 X
Test CRC 4C022686
Copy CRC 4C022686
Copy OK
Track 2
Filename C:\EAC Rips\Simon Nabatov & Tom Rainer - Steady Now (2005) [FLAC]\02 Cold Cuts.wav
Pre-gap length 0:00:05.08
Peak level 96.6 %
Extraction speed 11.9 X
Test CRC 518D322E
Copy CRC 518D322E
Copy OK
Track 3
Filename C:\EAC Rips\Simon Nabatov & Tom Rainer - Steady Now (2005) [FLAC]\03 Nao Olhe Para Tras.wav
Pre-gap length 0:00:03.52
Peak level 96.6 %
Extraction speed 13.9 X
Test CRC 61C4F244
Copy CRC 61C4F244
Copy OK
Track 4
Filename C:\EAC Rips\Simon Nabatov & Tom Rainer - Steady Now (2005) [FLAC]\04 Bird's Eye View.wav
Pre-gap length 0:00:06.06
Peak level 96.6 %
Extraction speed 15.4 X
Test CRC F6C411BE
Copy CRC F6C411BE
Copy OK
Track 5
Filename C:\EAC Rips\Simon Nabatov & Tom Rainer - Steady Now (2005) [FLAC]\05 Agrinte.wav
Pre-gap length 0:00:01.36
Peak level 96.6 %
Extraction speed 16.6 X
Test CRC 1F7103B0
Copy CRC 1F7103B0
Copy OK
Track 6
Filename C:\EAC Rips\Simon Nabatov & Tom Rainer - Steady Now (2005) [FLAC]\06 Crackle 'n Pop.wav
Pre-gap length 0:00:02.24
Peak level 96.6 %
Extraction speed 17.6 X
Test CRC C0B612EE
Copy CRC C0B612EE
Copy OK
Track 7
Filename C:\EAC Rips\Simon Nabatov & Tom Rainer - Steady Now (2005) [FLAC]\07 Four Fofo.wav
Pre-gap length 0:00:03.14
Peak level 96.6 %
Extraction speed 18.5 X
Test CRC 64581B65
Copy CRC 64581B65
Copy OK
Track 8
Filename C:\EAC Rips\Simon Nabatov & Tom Rainer - Steady Now (2005) [FLAC]\08 Vamp Vitale.wav
Pre-gap length 0:00:04.25
Peak level 96.6 %
Extraction speed 19.5 X
Test CRC B0B8F78B
Copy CRC B0B8F78B
Copy OK
Track 9
Filename C:\EAC Rips\Simon Nabatov & Tom Rainer - Steady Now (2005) [FLAC]\09 Fare Well.wav
Pre-gap length 0:00:04.01
Peak level 96.6 %
Extraction speed 21.0 X
Test CRC 24223BFE
Copy CRC 24223BFE
Copy OK
No errors occurred
End of status report
---- CUETools DB Plugin V2.1.3
[CTDB TOCID: RBu1PWS2QdaYemLKO1GbdEfVcjM-] found, Submit result: RBu1PWS2QdaYemLKO1GbdEfVcjM- has been confirmed
[ad2fcb9d] (1/1) Accurately ripped
==== Log checksum 8F5DCC2D41158E31CD29D32D92E6C346FCBA0B086FDA6597909D3E89643B8DDF ====
 
.cue
REM GENRE Jazz
REM DATE 2005
REM DISCID 7B104D09
REM COMMENT "ExactAudioCopy v1.0b3"
PERFORMER "Simon Nabatov & Tom Rainey"
TITLE "Steady Now"
FILE "01 Open Air.wav" WAVE
TRACK 01 AUDIO
TITLE "Open Air"
PERFORMER "Simon Nabatov & Tom Rainey"
FLAGS DCP
INDEX 01 00:00:00
TRACK 02 AUDIO
TITLE "Cold Cuts"
PERFORMER "Simon Nabatov & Tom Rainey"
FLAGS DCP
INDEX 00 04:47:37
FILE "02 Cold Cuts.wav" WAVE
INDEX 01 00:00:00
TRACK 03 AUDIO
TITLE "Nao Olhe Para Tras"
PERFORMER "Simon Nabatov & Tom Rainey"
FLAGS DCP
INDEX 00 09:20:04
FILE "03 Nao Olhe Para Tras.wav" WAVE
INDEX 01 00:00:00
TRACK 04 AUDIO
TITLE "Bird's Eye View"
PERFORMER "Simon Nabatov & Tom Rainey"
FLAGS DCP
INDEX 00 08:45:06
FILE "04 Bird's Eye View.wav" WAVE
INDEX 01 00:00:00
TRACK 05 AUDIO
TITLE "Agrinte"
PERFORMER "Simon Nabatov & Tom Rainey"
FLAGS DCP
INDEX 00 06:52:11
FILE "05 Agrinte.wav" WAVE
INDEX 01 00:00:00
TRACK 06 AUDIO
TITLE "Crackle 'n Pop"
PERFORMER "Simon Nabatov & Tom Rainey"
FLAGS DCP
INDEX 00 06:17:06
FILE "06 Crackle 'n Pop.wav" WAVE
INDEX 01 00:00:00
TRACK 07 AUDIO
TITLE "Four Fofo"
PERFORMER "Simon Nabatov & Tom Rainey"
FLAGS DCP
INDEX 00 05:45:40
FILE "07 Four Fofo.wav" WAVE
INDEX 01 00:00:00
TRACK 08 AUDIO
TITLE "Vamp Vitale"
PERFORMER "Simon Nabatov & Tom Rainey"
FLAGS DCP
INDEX 00 05:24:74
FILE "08 Vamp Vitale.wav" WAVE
INDEX 01 00:00:00
TRACK 09 AUDIO
TITLE "Fare Well"
PERFORMER "Simon Nabatov & Tom Rainey"
FLAGS DCP
INDEX 00 07:33:42
FILE "09 Fare Well.wav" WAVE
INDEX 01 00:00:00

http://www.discogs.com/Simon-Nabatov-Tom-Rainey-Steady-Now/release/2639710
другие релизы
По всем вопросам пишите личное сообщение пользователю M0p94ok.
14:54
192
Нет комментариев. Ваш будет первым!