Вы используете незарегистрированную версию компонента "Вкладки"!

Поиск

(Free Improvisation, Avantgarde) [CD] Werner Ludi - Ludi Solo: Lucendro - 1996, FLAC (tracks+.cue), lossless

(Free Improvisation, Avantgarde) [CD] Werner Ludi - Ludi Solo: Lucendro - 1996, FLAC (tracks+.cue), lossless
Треклист:
Werner Ludi / Lüdi Solo: Lucendro
Жанр: Free Improvisation, Avantgarde
Носитель: CD
Страна-производитель диска (релиза): Switzerland
Год издания: 1996
Издатель (лейбл): Unit Records
Номер по каталогу: UTR 4064 CD
Страна исполнителя (группы): Switzerland
Аудиокодек: FLAC (*.flac)
Тип рипа: tracks+.cue
Битрейт аудио: lossless
Продолжительность: 1:03:52
Источник (релизер): рип собственный
Наличие сканов в содержимом раздачи: да
Треклист:
1. Jenissei 21:38
2. Sebago 5:43
3. Jürmala 5:10
4. Las Hadas 4:55
5. Stromboli 5:00
6. Lagavulin 14:49
7. Solovki 6:34
 
Лог создания рипа
Exact Audio Copy V1.0 beta 3 from 29. August 2011
EAC extraction logfile from 4. August 2015, 12:55
Werner Lüdi / Lüdi Solo - Lucendro
Used drive : PIONEER BD-RW BDR-208M Adapter: 0 ID: 1
Read mode : Secure
Utilize accurate stream : Yes
Defeat audio cache : Yes
Make use of C2 pointers : No
Read offset correction : 667
Overread into Lead-In and Lead-Out : No
Fill up missing offset samples with silence : Yes
Delete leading and trailing silent blocks : No
Null samples used in CRC calculations : Yes
Used interface : Native Win32 interface for Win NT & 2000
Gap handling : Appended to previous track
Used output format : Internal WAV Routines
Sample format : 44.100 Hz; 16 Bit; Stereo
TOC of the extracted CD
Track | Start | Length | Start sector | End sector
---------------------------------------------------------
1 | 0:00.00 | 21:38.02 | 0 | 97351
2 | 21:38.02 | 5:43.48 | 97352 | 123124
3 | 27:21.50 | 5:10.22 | 123125 | 146396
4 | 32:31.72 | 4:55.35 | 146397 | 168556
5 | 37:27.32 | 5:00.53 | 168557 | 191109
6 | 42:28.10 | 14:49.40 | 191110 | 257824
7 | 57:17.50 | 6:34.05 | 257825 | 287379
Track 1
Filename C:\Sounds\Werner Ludi - Ludi Solo - Lucendro (1996)[FLAC]\01 - Jenissei.wav
Pre-gap length 0:00:02.00
Peak level 90.6 %
Extraction speed 6.4 X
Track quality 100.0 %
Test CRC 80F74F60
Copy CRC 80F74F60
Accurately ripped (confidence 2) [29614949] (AR v2)
Copy OK
Track 2
Filename C:\Sounds\Werner Ludi - Ludi Solo - Lucendro (1996)[FLAC]\02 - Sebago.wav
Peak level 82.1 %
Extraction speed 6.5 X
Track quality 99.9 %
Test CRC 7C2A6442
Copy CRC 7C2A6442
Accurately ripped (confidence 2) [EF166953] (AR v2)
Copy OK
Track 3
Filename C:\Sounds\Werner Ludi - Ludi Solo - Lucendro (1996)[FLAC]\03 - Jurmala.wav
Peak level 88.1 %
Extraction speed 7.4 X
Track quality 100.0 %
Test CRC 21305ED6
Copy CRC 21305ED6
Accurately ripped (confidence 2) [89B968B8] (AR v2)
Copy OK
Track 4
Filename C:\Sounds\Werner Ludi - Ludi Solo - Lucendro (1996)[FLAC]\04 - Las Hadas.wav
Peak level 89.6 %
Extraction speed 6.9 X
Track quality 99.9 %
Test CRC 77328711
Copy CRC 77328711
Accurately ripped (confidence 2) [5B6926E4] (AR v2)
Copy OK
Track 5
Filename C:\Sounds\Werner Ludi - Ludi Solo - Lucendro (1996)[FLAC]\05 - Stromboli.wav
Peak level 84.0 %
Extraction speed 7.9 X
Track quality 100.0 %
Test CRC 7C5FD1B2
Copy CRC 7C5FD1B2
Accurately ripped (confidence 2) [46027838] (AR v2)
Copy OK
Track 6
Filename C:\Sounds\Werner Ludi - Ludi Solo - Lucendro (1996)[FLAC]\06 - Lagavulin.wav
Peak level 64.5 %
Extraction speed 9.2 X
Track quality 100.0 %
Test CRC EAAEFFAD
Copy CRC EAAEFFAD
Accurately ripped (confidence 2) [2EFF2385] (AR v2)
Copy OK
Track 7
Filename C:\Sounds\Werner Ludi - Ludi Solo - Lucendro (1996)[FLAC]\07 - Solovki.wav
Peak level 89.6 %
Extraction speed 8.5 X
Track quality 99.9 %
Test CRC E1FD427D
Copy CRC E1FD427D
Accurately ripped (confidence 2) [19E35089] (AR v2)
Copy OK
All tracks accurately ripped
No errors occurred
End of status report
==== Log checksum 64826D2C9602DBE385DAD011AFFA711C0FDCBCC00828FC293808CD216A8F1616 ====
 
Содержание индексной карты (.CUE)
REM GENRE Jazz
REM DATE 1996
REM DISCID 560EF707
REM COMMENT "ExactAudioCopy v1.0b3"
CATALOG 0000000000000
PERFORMER "Werner Ludi"
TITLE "Ludi Solo - Lucendro"
FILE "01 - Jenissei.wav" WAVE
TRACK 01 AUDIO
TITLE "Jenissei"
PERFORMER "Werner Ludi"
INDEX 01 00:00:00
FILE "02 - Sebago.wav" WAVE
TRACK 02 AUDIO
TITLE "Sebago"
PERFORMER "Werner Ludi"
INDEX 01 00:00:00
FILE "03 - Jurmala.wav" WAVE
TRACK 03 AUDIO
TITLE "Jurmala"
PERFORMER "Werner Ludi"
INDEX 01 00:00:00
FILE "04 - Las Hadas.wav" WAVE
TRACK 04 AUDIO
TITLE "Las Hadas"
PERFORMER "Werner Ludi"
INDEX 01 00:00:00
FILE "05 - Stromboli.wav" WAVE
TRACK 05 AUDIO
TITLE "Stromboli"
PERFORMER "Werner Ludi"
INDEX 01 00:00:00
FILE "06 - Lagavulin.wav" WAVE
TRACK 06 AUDIO
TITLE "Lagavulin"
PERFORMER "Werner Ludi"
INDEX 01 00:00:00
FILE "07 - Solovki.wav" WAVE
TRACK 07 AUDIO
TITLE "Solovki"
PERFORMER "Werner Ludi"
INDEX 01 00:00:00
 
Лог проверки качества
-----------------------
DON'T MODIFY THIS FILE
-----------------------
PERFORMER: auCDtect Task Manager, ver. 1.5.1RC6 build 1.5.1.7
Copyright (c) 2008-2010 y-soft. All rights reserved
http://y-soft.org
ANALYZER: auCDtect: CD records authenticity detector, version 0.8.2
Copyright (c) 2004 Oleg Berngardt. All rights reserved.
Copyright (c) 2004 Alexander Djourik. All rights reserved.
FILE: 07 - Solovki.flac
Size: 27412903 Hash: 925D6F51670DAE563B74A6152A6BD67B Accuracy: -m0
Conclusion: CDDA 100%
Signature: D750ED3CA49B00D31D1E2367C1C7C01A8D0772D3
FILE: 06 - Lagavulin.flac
Size: 58608333 Hash: 7B6CFB2428BC793FCC50EEC9C4FCE55C Accuracy: -m0
Conclusion: CDDA 100%
Signature: 6B0F4BC5F13B7A9850A19C275E75C4DD0C8BF577
FILE: 05 - Stromboli.flac
Size: 27656640 Hash: 01BD073ABE590A4F5AA2ABBC59B0141A Accuracy: -m0
Conclusion: CDDA 100%
Signature: 4793F992CA809F7F3FE59BC6EA0F1C1A49626209
FILE: 04 - Las Hadas.flac
Size: 19529195 Hash: F793524FF05584690BA73AFC24C18C2D Accuracy: -m0
Conclusion: CDDA 100%
Signature: DC95371B1E8793F53F224AB9D411E2D17F5FBFA5
FILE: 03 - Jurmala.flac
Size: 26157458 Hash: A09EEE7FD563C5FCCD3230CD1FF1748B Accuracy: -m0
Conclusion: CDDA 100%
Signature: 27549687F31DB0BA33B708F6AE986ABAD33C9299
FILE: 02 - Sebago.flac
Size: 24168990 Hash: 7838AE5A1CBAF1CBC9CB06DB68033FD6 Accuracy: -m0
Conclusion: CDDA 100%
Signature: F5334CF6C45F8C4CB004A681305A8B71F61AD3B5
FILE: 01 - Jenissei.flac
Size: 72038452 Hash: 609DF10ECB4F85B5BF1D7BC641507D6B Accuracy: -m0
Conclusion: CDDA 100%
Signature: 44F6F347280CD6A8220F2B0310163EA00A1CE9FC
 
Об альбоме (сборнике)
Werner Lüdi - Baritone and Altosax on 'Las Hadas'
Recorded on September 3rd and 4th 1993 inside the dam Lucendro
Recorded By – Christoph Finé Renfer
"The dam "Lucendro" was built during the war in the years of 1942-47, a period when concrete was particularly rare. It is the only dam in Switzerland that is completely hollow inside. It is constructed as a series of 17 chambers distributed over a length of 270 meters and a height of 68,5 meters. Each chamber defines a distinct condition of space and the characteristics of sound and atmosphere."
"In a burst of sound the first blast hits the ceiling. The echo, five to seven seconds long, expands, opening like a blossom. It bursts overhead like a cascade of fireworks, like thousands of sparks floating down onto me. I only need to receive, to listen. I can mingle the most minute particles of time and light with the saxophone's tone, creating thunderstorms of sound. As if it were not I making the music--as if it were happening with me and through me.
What is producing these sounds? The overtones, of course. A series of overtones goes on forever. Using overtones as a vehicle vou can reach other dimensions, there are no limits. If you allow them to they will carry you on and on. I discover the slowness, I realize the importance of listening and perceiving, of allowing things to evolve. Miraculous. In this "cathedral of contained water" I experience how simple it is to transform from screaming to sighing to whispering to breathing...and vice versa."
WL
http://www.discogs.com/L%C3%BCdi-L%C3%BCdi-Solo-Lucendro/release/3299459
По всем вопросам пишите личное сообщение пользователю M0p94ok.
14:53
187
Нет комментариев. Ваш будет первым!