Вы используете незарегистрированную версию компонента "Вкладки"!

Поиск

(Free Jazz) [CD] Rodrigo Amado Motion Trio & Jeb Bishop - Burning Live At Jazz Ao Centro - 2012, FLAC (tracks+.cue), lossless

(Free Jazz) [CD] Rodrigo Amado Motion Trio & Jeb Bishop - Burning Live At Jazz Ao Centro - 2012, FLAC (tracks+.cue), lossless
Треклист:
Rodrigo Amado Motion Trio & Jeb Bishop / Burning Live At Jazz Ao Centro
Жанр: Free Jazz
Носитель: CD
Страна-производитель диска: Portugal
Год издания: 2012
Издатель (лейбл): JACC Records
Номер по каталогу: 017
Аудиокодек: FLAC (*.flac)
Тип рипа: tracks+.cue
Битрейт аудио: lossless
Продолжительность: 58:45
Источник (релизер): whatcd (6060842)
Наличие сканов в содержимом раздачи: нет
Треклист:
1 Burning Live 16:18
2 Imaginary Caverns 25:46
3 Red Halo 16:41
 
Лог создания рипа
X Lossless Decoder version 20130602 (143.2)
XLD extraction logfile from 2013-07-11 03:51:29 +0400
Rodrigo Amado Motion Trio, Jeb Bishop / Burning Live At Jazz Ao Centro
Used drive : HL-DT-ST DVDRW GX30N (revision RP09)
Media type : Pressed CD
Ripper mode : XLD Secure Ripper
Disable audio cache : OK for the drive with a cache less than 1375KiB
Make use of C2 pointers : NO
Read offset correction : 6
Max retry count : 100
Gap status : Analyzed, Appended (except HTOA)
TOC of the extracted CD
Track | Start | Length | Start sector | End sector
---------------------------------------------------------
1 | 00:00:00 | 16:18:59 | 0 | 73408
2 | 16:18:59 | 25:46:64 | 73409 | 189422
3 | 42:05:48 | 16:39:48 | 189423 | 264395
AccurateRip Summary
Disc not found in AccurateRip DB.
All Tracks
Album gain : -3.38 dB
Peak : 0.977692
Statistics
Read error : 0
Jitter error (maybe fixed) : 0
Retry sector count : 0
Damaged sector count : 0
Track 01
Filename : /Users/anch/Music/FLAC/Rodrigo Amado Motion Trio, Jeb Bishop - 2012 - Burning Live At Jazz Ao Centro [MP3 320]/01 - Burning Live.mp3
/Users/anch/Music/FLAC/Rodrigo Amado Motion Trio, Jeb Bishop - 2012 - Burning Live At Jazz Ao Centro [MP3 V0]/01 - Burning Live.mp3
/Users/anch/Music/FLAC/Rodrigo Amado Motion Trio, Jeb Bishop - 2012 - Burning Live At Jazz Ao Centro [FLAC]/01 - Burning Live.flac
Pre-gap length : 00:02:00
Track gain : -4.34 dB
Peak : 0.977631
CRC32 hash (test run) : 49D6FC32
CRC32 hash : 49D6FC32
CRC32 hash (skip zero) : 8CB33137
AccurateRip v1 signature : 3728984A
AccurateRip v2 signature : 2266D482
->Track not present in AccurateRip database.
Statistics
Read error : 0
Jitter error (maybe fixed) : 0
Retry sector count : 0
Damaged sector count : 0
Track 02
Filename : /Users/anch/Music/FLAC/Rodrigo Amado Motion Trio, Jeb Bishop - 2012 - Burning Live At Jazz Ao Centro [MP3 320]/02 - Imaginary Caverns.mp3
/Users/anch/Music/FLAC/Rodrigo Amado Motion Trio, Jeb Bishop - 2012 - Burning Live At Jazz Ao Centro [MP3 V0]/02 - Imaginary Caverns.mp3
/Users/anch/Music/FLAC/Rodrigo Amado Motion Trio, Jeb Bishop - 2012 - Burning Live At Jazz Ao Centro [FLAC]/02 - Imaginary Caverns.flac
Pre-gap length : 00:02:00
Track gain : -1.63 dB
Peak : 0.977509
CRC32 hash (test run) : 3FFB203E
CRC32 hash : 3FFB203E
CRC32 hash (skip zero) : 137E47AE
AccurateRip v1 signature : 840C7816
AccurateRip v2 signature : 90EBCD65
->Track not present in AccurateRip database.
Statistics
Read error : 0
Jitter error (maybe fixed) : 0
Retry sector count : 0
Damaged sector count : 0
Track 03
Filename : /Users/anch/Music/FLAC/Rodrigo Amado Motion Trio, Jeb Bishop - 2012 - Burning Live At Jazz Ao Centro [MP3 320]/03 - Red Halo.mp3
/Users/anch/Music/FLAC/Rodrigo Amado Motion Trio, Jeb Bishop - 2012 - Burning Live At Jazz Ao Centro [MP3 V0]/03 - Red Halo.mp3
/Users/anch/Music/FLAC/Rodrigo Amado Motion Trio, Jeb Bishop - 2012 - Burning Live At Jazz Ao Centro [FLAC]/03 - Red Halo.flac
Pre-gap length : 00:02:00
Track gain : -3.70 dB
Peak : 0.977692
CRC32 hash (test run) : DC8021BF
CRC32 hash : DC8021BF
CRC32 hash (skip zero) : D0A45B7E
AccurateRip v1 signature : EE797C52
AccurateRip v2 signature : 9CA57D68
->Track not present in AccurateRip database.
Statistics
Read error : 0
Jitter error (maybe fixed) : 0
Retry sector count : 0
Damaged sector count : 0
No errors occurred
End of status report
 
Содержание индексной карты (.CUE)
TITLE "Burning Live At Jazz Ao Centro"
PERFORMER "Rodrigo Amado Motion Trio, Jeb Bishop"
REM GENRE "Free Jazz"
REM DATE "2012"
REM DISCID 230DC503
REM REPLAYGAIN_ALBUM_GAIN -3.38 dB
REM REPLAYGAIN_ALBUM_PEAK 0.977692
FILE "01 - Burning Live.flac" WAVE
TRACK 01 AUDIO
TITLE "Burning Live"
PERFORMER "Rodrigo Amado Motion Trio, Jeb Bishop"
ISRC PTNN21201701
REM REPLAYGAIN_TRACK_GAIN -4.34 dB
REM REPLAYGAIN_TRACK_PEAK 0.977631
INDEX 01 00:00:00
TRACK 02 AUDIO
TITLE "Imaginary Caverns"
PERFORMER "Rodrigo Amado Motion Trio, Jeb Bishop"
ISRC PTNN21201702
REM REPLAYGAIN_TRACK_GAIN -1.63 dB
REM REPLAYGAIN_TRACK_PEAK 0.977509
INDEX 00 16:16:59
FILE "02 - Imaginary Caverns.flac" WAVE
INDEX 01 00:00:00
TRACK 03 AUDIO
TITLE "Red Halo"
PERFORMER "Rodrigo Amado Motion Trio, Jeb Bishop"
ISRC PTNN21201703
REM REPLAYGAIN_TRACK_GAIN -3.70 dB
REM REPLAYGAIN_TRACK_PEAK 0.977692
INDEX 00 25:44:64
FILE "03 - Red Halo.flac" WAVE
INDEX 01 00:00:00
Доп. информация: Recorded live at Jazz Ao Centro Festival, Coimbra, May 28th 2011.
 
Состав
Cello – Miguel Mira
Drums – Gabriel Ferrandini
Saxophone – Rodrigo Amado
Trombone – Jeb Bishop
По всем вопросам пишите личное сообщение пользователю M0p94ok.
06:31
121
Нет комментариев. Ваш будет первым!