Вы используете незарегистрированную версию компонента "Вкладки"!

Поиск

(Contemporary Jazz, Free Jazz) [CD] Roberto Ottaviano - Arcthetics - Soffio Primitivo - 2013, FLAC (tracks+.cue), lossless

Треклист:
Roberto Ottaviano / Arcthetics - Soffio Primitivo
Жанр: Contemporary Jazz, Free Jazz
Носитель: CD
Страна-производитель диска: Italy
Год издания: 2013
Издатель (лейбл): Dodicilune
Номер по каталогу: ED313
Аудиокодек: FLAC (*.flac)
Тип рипа: tracks+.cue
Битрейт аудио: lossless
Продолжительность: 58:40
Источник (релизер): whatcd (cifelius)
Наличие сканов в содержимом раздачи: да
Треклист:
1 Il Pane Degli Addii 5:17
2 Crosta Bizantina 8:42
3 Era Notte A Sud 7:55
4 Sospeso Tra Due Solitudini Estreme 10:47
5 Il Confinato 8:10
6 Zone Di Guerra 8:06
7 Lule T'bukura Ka Tirana 9:21
 
Лог создания рипа
Exact Audio Copy V1.0 beta 2 from 29. April 2011
EAC extraction logfile from 23. September 2013, 16:16
Roberto Ottaviano / Arcthetics Soffio Primitivo
Used drive : HL-DT-STDVDRAM GH24NS50 Adapter: 0 ID: 0
Read mode : Secure
Utilize accurate stream : Yes
Defeat audio cache : Yes
Make use of C2 pointers : No
Read offset correction : 667
Overread into Lead-In and Lead-Out : No
Fill up missing offset samples with silence : Yes
Delete leading and trailing silent blocks : No
Null samples used in CRC calculations : Yes
Used interface : Installed external ASPI interface
Gap handling : Appended to previous track
Used output format : User Defined Encoder
Selected bitrate : 768 kBit/s
Quality : High
Add ID3 tag : No
Command line compressor : E:\Programmi\Exact Audio Copy\Flac\flac.exe
Additional command line options : -8 -V -T "ARTIST=%artist%" -T "TITLE=%title%" -T "ALBUM=%albumtitle%" -T "DATE=%year%" -T "TRACKNUMBER=%tracknr%" -T "TOTALTRACKS=%numtracks%" -T "GENRE=%genre%" -T "ALBUMARTIST=%albumartist%" -T "ALBUM ARTIST=%albumartist%
TOC of the extracted CD
Track | Start | Length | Start sector | End sector
---------------------------------------------------------
1 | 0:00.00 | 5:21.28 | 0 | 24102
2 | 5:21.28 | 8:46.18 | 24103 | 63570
3 | 14:07.46 | 7:57.27 | 63571 | 99372
4 | 22:04.73 | 10:51.37 | 99373 | 148234
5 | 32:56.35 | 8:12.69 | 148235 | 185203
6 | 41:09.29 | 8:10.11 | 185204 | 221964
7 | 49:19.40 | 9:21.13 | 221965 | 264052
Track 1
Filename C:\Documents and Settings\user\Desktop\Roberto Ottaviano - Arcthetics Soffio Primitivo (2013) [FLAC] {Dodicilune}\01 - Il pane degli addii.wav
Pre-gap length 0:00:02.00
Peak level 96.6 %
Extraction speed 1.0 X
Track quality 99.9 %
Test CRC 788F15E6
Copy CRC 788F15E6
Track not present in AccurateRip database
Copy OK
Track 2
Filename C:\Documents and Settings\user\Desktop\Roberto Ottaviano - Arcthetics Soffio Primitivo (2013) [FLAC] {Dodicilune}\02 - Crosta bizantina.wav
Pre-gap length 0:00:03.68
Peak level 96.6 %
Extraction speed 1.3 X
Track quality 100.0 %
Test CRC AFFE4F60
Copy CRC AFFE4F60
Track not present in AccurateRip database
Copy OK
Track 3
Filename C:\Documents and Settings\user\Desktop\Roberto Ottaviano - Arcthetics Soffio Primitivo (2013) [FLAC] {Dodicilune}\03 - Era notte a sud.wav
Pre-gap length 0:00:03.25
Peak level 96.6 %
Extraction speed 1.5 X
Track quality 100.0 %
Test CRC 8D6D95B7
Copy CRC 8D6D95B7
Track not present in AccurateRip database
Copy OK
Track 4
Filename C:\Documents and Settings\user\Desktop\Roberto Ottaviano - Arcthetics Soffio Primitivo (2013) [FLAC] {Dodicilune}\04 - Sospeso tra due solitudini estreme.wav
Pre-gap length 0:00:02.25
Peak level 96.6 %
Extraction speed 1.8 X
Track quality 100.0 %
Test CRC A864D7A6
Copy CRC A864D7A6
Track not present in AccurateRip database
Copy OK
Track 5
Filename C:\Documents and Settings\user\Desktop\Roberto Ottaviano - Arcthetics Soffio Primitivo (2013) [FLAC] {Dodicilune}\05 - Il confinato.wav
Pre-gap length 0:00:03.54
Peak level 96.6 %
Extraction speed 1.9 X
Track quality 100.0 %
Test CRC 46C35F94
Copy CRC 46C35F94
Track not present in AccurateRip database
Copy OK
Track 6
Filename C:\Documents and Settings\user\Desktop\Roberto Ottaviano - Arcthetics Soffio Primitivo (2013) [FLAC] {Dodicilune}\06 - Zone di guerra.wav
Pre-gap length 0:00:02.47
Peak level 96.6 %
Extraction speed 2.1 X
Track quality 100.0 %
Test CRC 763C220D
Copy CRC 763C220D
Track not present in AccurateRip database
Copy OK
Track 7
Filename C:\Documents and Settings\user\Desktop\Roberto Ottaviano - Arcthetics Soffio Primitivo (2013) [FLAC] {Dodicilune}\07 - Lule t'bukura ka Tirana.wav
Pre-gap length 0:00:03.38
Peak level 96.6 %
Extraction speed 2.3 X
Track quality 100.0 %
Test CRC 34F3EA95
Copy CRC 34F3EA95
Track not present in AccurateRip database
Copy OK
None of the tracks are present in the AccurateRip database
No errors occurred
End of status report
==== Log checksum 54DE67E30BD08F776589B0BCD2B1E3A5F998735763F22A1400B76A0C3671D7B3 ====
 
Содержание индексной карты (.CUE)
REM GENRE Jazz
REM DATE 2013
REM DISCID 640DC007
REM COMMENT "ExactAudioCopy v1.0b2"
PERFORMER "Roberto Ottaviano"
TITLE "Arcthetics Soffio Primitivo"
FILE "01 - Il pane degli addii.wav" WAVE
TRACK 01 AUDIO
TITLE "Il pane degli addii"
PERFORMER "Roberto Ottaviano"
INDEX 01 00:00:00
TRACK 02 AUDIO
TITLE "Crosta bizantina"
PERFORMER "Roberto Ottaviano"
INDEX 00 05:17:35
FILE "02 - Crosta bizantina.wav" WAVE
INDEX 01 00:00:00
TRACK 03 AUDIO
TITLE "Era notte a sud"
PERFORMER "Roberto Ottaviano"
INDEX 00 08:42:68
FILE "03 - Era notte a sud.wav" WAVE
INDEX 01 00:00:00
TRACK 04 AUDIO
TITLE "Sospeso tra due solitudini estreme"
PERFORMER "Roberto Ottaviano"
INDEX 00 07:55:02
FILE "04 - Sospeso tra due solitudini estreme.wav" WAVE
INDEX 01 00:00:00
TRACK 05 AUDIO
TITLE "Il confinato"
PERFORMER "Roberto Ottaviano"
INDEX 00 10:47:58
FILE "05 - Il confinato.wav" WAVE
INDEX 01 00:00:00
TRACK 06 AUDIO
TITLE "Zone di guerra"
PERFORMER "Roberto Ottaviano"
INDEX 00 08:10:22
FILE "06 - Zone di guerra.wav" WAVE
INDEX 01 00:00:00
TRACK 07 AUDIO
TITLE "Lule t'bukura ka Tirana"
PERFORMER "Roberto Ottaviano"
INDEX 00 08:06:48
FILE "07 - Lule t'bukura ka Tirana.wav" WAVE
INDEX 01 00:00:00
Доп. информация: Recorded November 2006 at Artesuono, Cavalicco (Ud), Italy
 
Состав
Cello [Violoncello] – Salvatore Maiore
Double Bass – Giovanni Maier
Drums – Roberto Dani
Soprano Saxophone – Roberto Ottaviano
Viola – Paolo Botti
Violin – Emanuele Parrini
По всем вопросам пишите личное сообщение пользователю M0p94ok.
06:30
116
Нет комментариев. Ваш будет первым!