Поиск

(Free Jazz) [CD] Pharoah Sanders - Rejoice - 1981 (2003 Japan Edition), FLAC (tracks+.cue), lossless

(Free Jazz) [CD] Pharoah Sanders - Rejoice - 1981 (2003 Japan Edition), FLAC (tracks+.cue), lossless
Треклист:
Pharoah Sanders - Rejoice
Жанр: Free Jazz
Носитель: CD
Страна-производитель диска (релиза): Япония
Год издания: 2003
Издатель (лейбл): Theresa Records
Номер по каталогу: BSCP-30085
Страна исполнителя (группы): США
Аудиокодек: FLAC (*.flac)
Тип рипа: tracks+.cue
Битрейт аудио: lossless
Продолжительность: 63:27
Источник (релизер): FelixClown (what)
Наличие сканов в содержимом раздачи: нет
Треклист:
01. Rejoice (Sanders) - 12:48
02. Highlife (Trad.) - 7:42
03. Nigerian Juju Hilife (Trad.) - 10:02
04. Origin (Sanders) - 5:45
05. When Lights Are Low (Carter) - 6:28
06. Moments Notice (Coltrane-Johnson) - 5:20
07. Central Park West (Coltrane) - 5:47
08. Ntjilo Ntjilo/Bird Song (Trad.) - 4:06
09. Farah (Sanders) - 5:29
 
Лог создания рипа
X Lossless Decoder version 20151214 (149.1)
XLD extraction logfile from 2016-05-03 17:22:06 -0400
Pharoah Sanders / Rejoice
Used drive : Apple SuperDrive (revision 2.00)
Media type : Pressed CD
Ripper mode : XLD Secure Ripper
Disable audio cache : OK for the drive with a cache less than 1375KiB
Make use of C2 pointers : NO
Read offset correction : 6
Max retry count : 20
Gap status : Analyzed, Appended
TOC of the extracted CD
Track | Start | Length | Start sector | End sector
---------------------------------------------------------
1 | 00:00:00 | 12:48:00 | 0 | 57599
2 | 12:48:00 | 07:42:37 | 57600 | 92286
3 | 20:30:37 | 10:01:73 | 92287 | 137434
4 | 30:32:35 | 05:45:02 | 137435 | 163311
5 | 36:17:37 | 06:28:35 | 163312 | 192446
6 | 42:45:72 | 05:20:03 | 192447 | 216449
7 | 48:06:00 | 05:47:00 | 216450 | 242474
8 | 53:53:00 | 04:06:35 | 242475 | 260959
9 | 57:59:35 | 05:29:37 | 260960 | 285671
AccurateRip Summary
Disc not found in AccurateRip DB.
All Tracks
Album gain : -6.14 dB
Peak : 0.999939
Statistics
Read error : 0
Jitter error (maybe fixed) : 0
Retry sector count : 0
Damaged sector count : 0
Track 01
Filename : /Users/davidhirschberg/Desktop/RIP Folder/Pharoah Sanders - Rejoice (1981) [V0 (VBR)]/01 Rejoice.mp3
/Users/davidhirschberg/Desktop/RIP Folder/Pharoah Sanders - Rejoice (1981) [V2 (VBR)]/01 Rejoice.mp3
/Users/davidhirschberg/Desktop/RIP Folder/Pharoah Sanders - Rejoice (1981) [320]/01 Rejoice.mp3
/Users/davidhirschberg/Desktop/RIP Folder/Pharoah Sanders - Rejoice (1981) [FLAC ]/01 Rejoice.flac
Pre-gap length : 00:02:00
Track gain : -7.37 dB
Peak : 0.991974
CRC32 hash (test run) : 8FC174E2
CRC32 hash : 8FC174E2
CRC32 hash (skip zero) : 225FE1BB
AccurateRip v1 signature : 6F901FFB
AccurateRip v2 signature : 785157D3
->Track not present in AccurateRip database.
Statistics
Read error : 0
Jitter error (maybe fixed) : 0
Retry sector count : 0
Damaged sector count : 0
Track 02
Filename : /Users/davidhirschberg/Desktop/RIP Folder/Pharoah Sanders - Rejoice (1981) [V0 (VBR)]/02 Highlife.mp3
/Users/davidhirschberg/Desktop/RIP Folder/Pharoah Sanders - Rejoice (1981) [V2 (VBR)]/02 Highlife.mp3
/Users/davidhirschberg/Desktop/RIP Folder/Pharoah Sanders - Rejoice (1981) [320]/02 Highlife.mp3
/Users/davidhirschberg/Desktop/RIP Folder/Pharoah Sanders - Rejoice (1981) [FLAC ]/02 Highlife.flac
Pre-gap length : 00:03:28
Track gain : -5.49 dB
Peak : 0.983246
CRC32 hash (test run) : 99EA462E
CRC32 hash : 99EA462E
CRC32 hash (skip zero) : BFDEB534
AccurateRip v1 signature : 745FBC38
AccurateRip v2 signature : 99EE8E9E
->Track not present in AccurateRip database.
Statistics
Read error : 0
Jitter error (maybe fixed) : 0
Retry sector count : 0
Damaged sector count : 0
Track 03
Filename : /Users/davidhirschberg/Desktop/RIP Folder/Pharoah Sanders - Rejoice (1981) [V0 (VBR)]/03 Nigerian Juju Hilife.mp3
/Users/davidhirschberg/Desktop/RIP Folder/Pharoah Sanders - Rejoice (1981) [V2 (VBR)]/03 Nigerian Juju Hilife.mp3
/Users/davidhirschberg/Desktop/RIP Folder/Pharoah Sanders - Rejoice (1981) [320]/03 Nigerian Juju Hilife.mp3
/Users/davidhirschberg/Desktop/RIP Folder/Pharoah Sanders - Rejoice (1981) [FLAC ]/03 Nigerian Juju Hilife.flac
Pre-gap length : 00:02:45
Track gain : -5.63 dB
Peak : 0.991150
CRC32 hash (test run) : 52765339
CRC32 hash : 52765339
CRC32 hash (skip zero) : 29BEA145
AccurateRip v1 signature : 46909A58
AccurateRip v2 signature : 5DBA507F
->Track not present in AccurateRip database.
Statistics
Read error : 0
Jitter error (maybe fixed) : 0
Retry sector count : 0
Damaged sector count : 0
Track 04
Filename : /Users/davidhirschberg/Desktop/RIP Folder/Pharoah Sanders - Rejoice (1981) [V0 (VBR)]/04 Origin.mp3
/Users/davidhirschberg/Desktop/RIP Folder/Pharoah Sanders - Rejoice (1981) [V2 (VBR)]/04 Origin.mp3
/Users/davidhirschberg/Desktop/RIP Folder/Pharoah Sanders - Rejoice (1981) [320]/04 Origin.mp3
/Users/davidhirschberg/Desktop/RIP Folder/Pharoah Sanders - Rejoice (1981) [FLAC ]/04 Origin.flac
Pre-gap length : 00:03:23
Track gain : -5.75 dB
Peak : 0.999939
CRC32 hash (test run) : 63C0A882
CRC32 hash : 63C0A882
CRC32 hash (skip zero) : 2205B2F2
AccurateRip v1 signature : 8A1BA682
AccurateRip v2 signature : 404B6860
->Track not present in AccurateRip database.
Statistics
Read error : 0
Jitter error (maybe fixed) : 0
Retry sector count : 0
Damaged sector count : 0
Track 05
Filename : /Users/davidhirschberg/Desktop/RIP Folder/Pharoah Sanders - Rejoice (1981) [V0 (VBR)]/05 When Lights Are Low.mp3
/Users/davidhirschberg/Desktop/RIP Folder/Pharoah Sanders - Rejoice (1981) [V2 (VBR)]/05 When Lights Are Low.mp3
/Users/davidhirschberg/Desktop/RIP Folder/Pharoah Sanders - Rejoice (1981) [320]/05 When Lights Are Low.mp3
/Users/davidhirschberg/Desktop/RIP Folder/Pharoah Sanders - Rejoice (1981) [FLAC ]/05 When Lights Are Low.flac
Pre-gap length : 00:03:00
Track gain : -5.71 dB
Peak : 0.957794
CRC32 hash (test run) : BAC36D90
CRC32 hash : BAC36D90
CRC32 hash (skip zero) : D9516543
AccurateRip v1 signature : C9ABD478
AccurateRip v2 signature : A8AA362D
->Track not present in AccurateRip database.
Statistics
Read error : 0
Jitter error (maybe fixed) : 0
Retry sector count : 0
Damaged sector count : 0
Track 06
Filename : /Users/davidhirschberg/Desktop/RIP Folder/Pharoah Sanders - Rejoice (1981) [V0 (VBR)]/06 Moments Notice.mp3
/Users/davidhirschberg/Desktop/RIP Folder/Pharoah Sanders - Rejoice (1981) [V2 (VBR)]/06 Moments Notice.mp3
/Users/davidhirschberg/Desktop/RIP Folder/Pharoah Sanders - Rejoice (1981) [320]/06 Moments Notice.mp3
/Users/davidhirschberg/Desktop/RIP Folder/Pharoah Sanders - Rejoice (1981) [FLAC ]/06 Moments Notice.flac
Pre-gap length : 00:02:72
Track gain : -6.08 dB
Peak : 0.968964
CRC32 hash (test run) : BF44F095
CRC32 hash : BF44F095
CRC32 hash (skip zero) : 8E4EA722
AccurateRip v1 signature : D10BDD79
AccurateRip v2 signature : F6A1BB06
->Track not present in AccurateRip database.
Statistics
Read error : 0
Jitter error (maybe fixed) : 0
Retry sector count : 0
Damaged sector count : 0
Track 07
Filename : /Users/davidhirschberg/Desktop/RIP Folder/Pharoah Sanders - Rejoice (1981) [V0 (VBR)]/07 Central Park West.mp3
/Users/davidhirschberg/Desktop/RIP Folder/Pharoah Sanders - Rejoice (1981) [V2 (VBR)]/07 Central Park West.mp3
/Users/davidhirschberg/Desktop/RIP Folder/Pharoah Sanders - Rejoice (1981) [320]/07 Central Park West.mp3
/Users/davidhirschberg/Desktop/RIP Folder/Pharoah Sanders - Rejoice (1981) [FLAC ]/07 Central Park West.flac
Pre-gap length : 00:02:55
Track gain : -4.18 dB
Peak : 0.983154
CRC32 hash (test run) : 3D05BEE4
CRC32 hash : 3D05BEE4
CRC32 hash (skip zero) : 7AAC2CE2
AccurateRip v1 signature : 7A71F87F
AccurateRip v2 signature : 22254E97
->Track not present in AccurateRip database.
Statistics
Read error : 0
Jitter error (maybe fixed) : 0
Retry sector count : 0
Damaged sector count : 0
Track 08
Filename : /Users/davidhirschberg/Desktop/RIP Folder/Pharoah Sanders - Rejoice (1981) [V0 (VBR)]/08 Ntjilo NtjiloпјЏBird Song.mp3
/Users/davidhirschberg/Desktop/RIP Folder/Pharoah Sanders - Rejoice (1981) [V2 (VBR)]/08 Ntjilo NtjiloпјЏBird Song.mp3
/Users/davidhirschberg/Desktop/RIP Folder/Pharoah Sanders - Rejoice (1981) [320]/08 Ntjilo NtjiloпјЏBird Song.mp3
/Users/davidhirschberg/Desktop/RIP Folder/Pharoah Sanders - Rejoice (1981) [FLAC ]/08 Ntjilo NtjiloпјЏBird Song.flac
Pre-gap length : 00:02:63
Track gain : -6.39 dB
Peak : 0.986481
CRC32 hash (test run) : 895B886D
CRC32 hash : 895B886D
CRC32 hash (skip zero) : 71414A0A
AccurateRip v1 signature : EF6DAEC5
AccurateRip v2 signature : A8F3919E
->Track not present in AccurateRip database.
Statistics
Read error : 0
Jitter error (maybe fixed) : 0
Retry sector count : 0
Damaged sector count : 0
Track 09
Filename : /Users/davidhirschberg/Desktop/RIP Folder/Pharoah Sanders - Rejoice (1981) [V0 (VBR)]/09 Farah.mp3
/Users/davidhirschberg/Desktop/RIP Folder/Pharoah Sanders - Rejoice (1981) [V2 (VBR)]/09 Farah.mp3
/Users/davidhirschberg/Desktop/RIP Folder/Pharoah Sanders - Rejoice (1981) [320]/09 Farah.mp3
/Users/davidhirschberg/Desktop/RIP Folder/Pharoah Sanders - Rejoice (1981) [FLAC ]/09 Farah.flac
Pre-gap length : 00:03:13
Track gain : -5.60 dB
Peak : 0.946808
CRC32 hash (test run) : E2B336C6
CRC32 hash : E2B336C6
CRC32 hash (skip zero) : D83C3D1F
AccurateRip v1 signature : EE8EABB5
AccurateRip v2 signature : 86CE28B8
->Track not present in AccurateRip database.
Statistics
Read error : 0
Jitter error (maybe fixed) : 0
Retry sector count : 0
Damaged sector count : 0
No errors occurred
End of status report
-----BEGIN XLD SIGNATURE-----
YOK5NH9KkHpuk0yM31GHX1Qw_Zl1xNpi.d.dUL8xd1jDmpLVo_lCyR_Ru7XqtjfaURu7PhOtc1pLi1ptRCNaYz0KGLgurpT_OuzkAm8
-----END XLD SIGNATURE-----
 
Содержание индексной карты (.CUE)
TITLE "Rejoice"
PERFORMER "Pharoah Sanders"
CATALOG 4580113670858
REM GENRE "Jazz"
REM DATE "1981"
REM DISCID 860EE009
REM REPLAYGAIN_ALBUM_GAIN -6.14 dB
REM REPLAYGAIN_ALBUM_PEAK 0.999939
FILE "01 - Rejoice.flac" WAVE
TRACK 01 AUDIO
TITLE "Rejoice"
REM REPLAYGAIN_TRACK_GAIN -7.37 dB
REM REPLAYGAIN_TRACK_PEAK 0.991974
INDEX 01 00:00:00
TRACK 02 AUDIO
TITLE "Highlife"
REM REPLAYGAIN_TRACK_GAIN -5.49 dB
REM REPLAYGAIN_TRACK_PEAK 0.983246
INDEX 00 12:44:47
FILE "02 - Highlife.flac" WAVE
INDEX 01 00:00:00
TRACK 03 AUDIO
TITLE "Nigerian Juju Hilife"
REM REPLAYGAIN_TRACK_GAIN -5.63 dB
REM REPLAYGAIN_TRACK_PEAK 0.991150
INDEX 00 07:39:67
FILE "03 - Nigerian Juju Hilife.flac" WAVE
INDEX 01 00:00:00
TRACK 04 AUDIO
TITLE "Origin"
REM REPLAYGAIN_TRACK_GAIN -5.75 dB
REM REPLAYGAIN_TRACK_PEAK 0.999939
INDEX 00 09:58:50
FILE "04 - Origin.flac" WAVE
INDEX 01 00:00:00
TRACK 05 AUDIO
TITLE "When Lights Are Low"
REM REPLAYGAIN_TRACK_GAIN -5.71 dB
REM REPLAYGAIN_TRACK_PEAK 0.957794
INDEX 00 05:42:02
FILE "05 - When Lights Are Low.flac" WAVE
INDEX 01 00:00:00
TRACK 06 AUDIO
TITLE "Moments Notice"
REM REPLAYGAIN_TRACK_GAIN -6.08 dB
REM REPLAYGAIN_TRACK_PEAK 0.968964
INDEX 00 06:25:38
FILE "06 - Moments Notice.flac" WAVE
INDEX 01 00:00:00
TRACK 07 AUDIO
TITLE "Central Park West"
REM REPLAYGAIN_TRACK_GAIN -4.18 dB
REM REPLAYGAIN_TRACK_PEAK 0.983154
INDEX 00 05:17:23
FILE "07 - Central Park West.flac" WAVE
INDEX 01 00:00:00
TRACK 08 AUDIO
TITLE "Ntjilo Ntjilo/Bird Song"
REM REPLAYGAIN_TRACK_GAIN -6.39 dB
REM REPLAYGAIN_TRACK_PEAK 0.986481
INDEX 00 05:44:12
FILE "08 - Ntjilo Ntjilo,Bird Song.flac" WAVE
INDEX 01 00:00:00
TRACK 09 AUDIO
TITLE "Farah"
REM REPLAYGAIN_TRACK_GAIN -5.60 dB
REM REPLAYGAIN_TRACK_PEAK 0.946808
INDEX 00 04:03:22
FILE "09 - Farah.flac" WAVE
INDEX 01 00:00:00
 
AllMusic Review by Scott Yanow
A two-LP set on Theresa, Rejoice features Pharoah Sanders in excellent form in 1981. Sanders sounds much more mellow than he had a decade earlier, often improvising in a style similar to late-'50s John Coltrane, particularly on "When Lights Are Low," "Moments Notice," and "Central Park West." The personnel changes on many of the selections and includes such top players as pianists Joe Bonner and John Hicks, bassist Art Davis, drummers Elvin Jones and Billy Higgins, vibraphonist Bobby Hutcherson, trombonist Steve Turre, trumpeter Danny Moore, a harpist, and (on "Origin" and "Central Park West") five vocalists. The music always holds one's interest, making this one of Sanders' better later recordings.
 
Состав
Pharoah Sanders - tenor saxophone, bells, vocals
Danny Moore - trumpet (#4-7)
Steve Turre - trombone (#4-7)
Lois Colin - harp (#7,8)
Bobby Hutcherson - vibraphone (#1,4,6,7)
John Hicks - piano (#4-7)
Joe Bonner - piano, vocals (#1-3,8,9)
Peter Fujii - guitar, vocals (#2,3)
Art Davis - bass (#1,4-7)
Jorge Pomar - bass, vocals (#2,3)
Elvin Jones (#1), Billy Higgins (#4-7) - drums
Big Black - congas, vocals (#2,3)
Babatunde Lea - bells, drums, shekere, vocals (#1-3)
George V. Johnson Jr. - vocals (#6)
B. Kazuko Ishida - voice (#1)
Flame Braithwaite, Bobby London, Sakinah Muhammad, Carroll Wilson Scott, Yvette S. Vanterpool - vocals (#4,7)
William S. Fischer - vocal arranger (#4,7)
Recorded in New York and San Francisco, CA in 1981.
19:14
421
Нет комментариев. Ваш будет первым!