Вы используете незарегистрированную версию компонента "Вкладки"!

Поиск

(free jazz) [CD] Per Henrik Wallin - Velodromer 2005, FLAC (tracks+.cue), lossless

(free jazz) [CD] Per Henrik Wallin - Velodromer 2005, FLAC (tracks+.cue), lossless
Треклист:


Per Henrik Wallin - Velodromer 2005

Жанр: free jazz
Год выпуска: 2005
Издатель (лейбл):Moserobie Music Production / m.m.p CD 033
Формат: FLAC (tracks+.cue)
Битрейт аудио: lossless
Продолжительность 1`12`36
Источник: what.cd, larvig

tracks
1 Fredag
2 Full Opus 4
3 I Got It Bad And That Ain't Good
4 Evening Roofs Of Calcutta, The Streets, The Stars
5 The Great Thomas Fats Waller Remembered
6 Velodrom 1
7 Velodrom 2
8 Velodrom 3: You Once
9 Velodrom 4
10 Velodrom 5: Brain Dance
11 Velodrom 6
12 Velodrom 7
13 Velodrom 8
14 Velodrom 9: Satumaa
15 Velodrom 10
16 Velodrom 11
17 Velodrom 12
18 Velodrom 13
19 Velodrom 14: Satumaa
20 Velodrom 15
21 Velodrom 16: Söndag
22 Velodrom 17: Chico Marx
23 Velodrom 18: Hanteringen
24 Velodrom 19
25 Velodrom 20
26 Velodrom 21
27 Velodrom 22
28 Velodrom 23
29 Velodrom 24


 
.log
Exact Audio Copy V1.0 beta 3 from 29. August 2011
EAC extraction logfile from 31. March 2013, 18:02
Per Henrik Wallin / Velodromer
Used drive : HL-DT-STDVD-RAM GSA-H54N Adapter: 0 ID: 0
Read mode : Secure
Utilize accurate stream : Yes
Defeat audio cache : Yes
Make use of C2 pointers : No
Read offset correction : 102
Overread into Lead-In and Lead-Out : No
Fill up missing offset samples with silence : Yes
Delete leading and trailing silent blocks : No
Null samples used in CRC calculations : Yes
Used interface : Native Win32 interface for Win NT & 2000
Gap handling : Appended to previous track
Used output format : User Defined Encoder
Selected bitrate : 1024 kBit/s
Quality : High
Add ID3 tag : Yes
Command line compressor : C:\Program Files\Exact Audio Copy\Flac\flac.exe
Additional command line options : -8 -V -T "ARTIST=%artist%" -T "TITLE=%title%" -T "ALBUM=%albumtitle%" -T "DATE=%year%" -T "TRACKNUMBER=%tracknr%" -T "GENRE=%genre%" -T "PERFORMER=%albuminterpret%" -T "COMPOSER=%composer%" %haslyrics%--tag-from-file=LYRICS="%lyricsfile%"%haslyrics% -T "ALBUMARTIST=%albumartist%" -T "DISCNUMBER=%cdnumber%" -T "TOTALDISCS=%totalcds%" -T "TOTALTRACKS=%numtracks%" -T "COMMENT=%comment%" %source% -o %dest%
TOC of the extracted CD
Track | Start | Length | Start sector | End sector
---------------------------------------------------------
1 | 0:00.00 | 2:18.15 | 0 | 10364
2 | 2:18.15 | 4:38.10 | 10365 | 31224
3 | 6:56.25 | 4:42.47 | 31225 | 52421
4 | 11:38.72 | 10:33.26 | 52422 | 99922
5 | 22:12.23 | 4:34.29 | 99923 | 120501
6 | 26:46.52 | 0:40.42 | 120502 | 123543
7 | 27:27.19 | 1:13.22 | 123544 | 129040
8 | 28:40.41 | 4:36.14 | 129041 | 149754
9 | 33:16.55 | 1:12.03 | 149755 | 155157
10 | 34:28.58 | 2:35.54 | 155158 | 166836
11 | 37:04.37 | 3:36.42 | 166837 | 183078
12 | 40:41.04 | 0:24.12 | 183079 | 184890
13 | 41:05.16 | 0:18.13 | 184891 | 186253
14 | 41:23.29 | 3:03.41 | 186254 | 200019
15 | 44:26.70 | 4:48.49 | 200020 | 221668
16 | 49:15.44 | 0:43.11 | 221669 | 224904
17 | 49:58.55 | 0:31.31 | 224905 | 227260
18 | 50:30.11 | 3:04.66 | 227261 | 241126
19 | 53:35.02 | 2:35.38 | 241127 | 252789
20 | 56:10.40 | 2:56.23 | 252790 | 266012
21 | 59:06.63 | 1:24.14 | 266013 | 272326
22 | 60:31.02 | 1:19.12 | 272327 | 278263
23 | 61:50.14 | 4:05.05 | 278264 | 296643
24 | 65:55.19 | 1:10.01 | 296644 | 301894
25 | 67:05.20 | 1:06.38 | 301895 | 306882
26 | 68:11.58 | 1:36.26 | 306883 | 314108
27 | 69:48.09 | 0:56.25 | 314109 | 318333
28 | 70:44.34 | 1:38.15 | 318334 | 325698
29 | 72:22.49 | 0:13.30 | 325699 | 326703
Track 1
Filename C:\Documents and Settings\Administrator\Desktop\förwhat.cd\Velodromer-Per Henrik Wallin [flac]\01 Fredag.wav
Pre-gap length 0:00:02.00
Peak level 89.9 %
Extraction speed 1.6 X
Track quality 100.0 %
Test CRC B219BC6F
Copy CRC B219BC6F
Track not present in AccurateRip database
Copy OK
Track 2
Filename C:\Documents and Settings\Administrator\Desktop\förwhat.cd\Velodromer-Per Henrik Wallin [flac]\02 Full Opus 4.wav
Pre-gap length 0:00:02.00
Peak level 89.9 %
Extraction speed 1.9 X
Track quality 100.0 %
Test CRC 73DDB929
Copy CRC 73DDB929
Track not present in AccurateRip database
Copy OK
Track 3
Filename C:\Documents and Settings\Administrator\Desktop\förwhat.cd\Velodromer-Per Henrik Wallin [flac]\03 I Got It Bad And That Ain't Good.wav
Pre-gap length 0:00:02.00
Peak level 85.0 %
Extraction speed 2.1 X
Track quality 100.0 %
Test CRC EEF4A397
Copy CRC EEF4A397
Track not present in AccurateRip database
Copy OK
Track 4
Filename C:\Documents and Settings\Administrator\Desktop\förwhat.cd\Velodromer-Per Henrik Wallin [flac]\04 Evening Roofs Of Calcutta, The Streets, The Stars.wav
Pre-gap length 0:00:02.00
Peak level 85.0 %
Extraction speed 2.5 X
Track quality 100.0 %
Test CRC BEFD85C8
Copy CRC BEFD85C8
Track not present in AccurateRip database
Copy OK
Track 5
Filename C:\Documents and Settings\Administrator\Desktop\förwhat.cd\Velodromer-Per Henrik Wallin [flac]\05 The Great Thomas Fats Waller Remembered.wav
Pre-gap length 0:00:02.00
Peak level 85.0 %
Extraction speed 2.6 X
Track quality 100.0 %
Test CRC 70F2D9B3
Copy CRC 70F2D9B3
Track not present in AccurateRip database
Copy OK
Track 6
Filename C:\Documents and Settings\Administrator\Desktop\förwhat.cd\Velodromer-Per Henrik Wallin [flac]\06 Velodrom 1.wav
Pre-gap length 0:00:02.00
Peak level 33.2 %
Extraction speed 1.6 X
Track quality 100.0 %
Test CRC 18DFEC6E
Copy CRC 18DFEC6E
Track not present in AccurateRip database
Copy OK
Track 7
Filename C:\Documents and Settings\Administrator\Desktop\förwhat.cd\Velodromer-Per Henrik Wallin [flac]\07 Velodrom 2.wav
Pre-gap length 0:00:02.00
Peak level 49.0 %
Extraction speed 2.0 X
Track quality 100.0 %
Test CRC 89BB401C
Copy CRC 89BB401C
Track not present in AccurateRip database
Copy OK
Track 8
Filename C:\Documents and Settings\Administrator\Desktop\förwhat.cd\Velodromer-Per Henrik Wallin [flac]\08 Velodrom 3- You Once.wav
Pre-gap length 0:00:02.00
Peak level 83.3 %
Extraction speed 2.5 X
Track quality 99.9 %
Test CRC 522045CB
Copy CRC 522045CB
Track not present in AccurateRip database
Copy OK
Track 9
Filename C:\Documents and Settings\Administrator\Desktop\förwhat.cd\Velodromer-Per Henrik Wallin [flac]\09 Velodrom 4.wav
Pre-gap length 0:00:02.00
Peak level 59.8 %
Extraction speed 1.6 X
Track quality 99.8 %
Test CRC 746D7115
Copy CRC 746D7115
Track not present in AccurateRip database
Copy OK
Track 10
Filename C:\Documents and Settings\Administrator\Desktop\förwhat.cd\Velodromer-Per Henrik Wallin [flac]\10 Velodrom 5- Brain Dance.wav
Pre-gap length 0:00:02.00
Peak level 87.2 %
Extraction speed 2.2 X
Track quality 99.9 %
Test CRC 920A1BA7
Copy CRC 920A1BA7
Track not present in AccurateRip database
Copy OK
Track 11
Filename C:\Documents and Settings\Administrator\Desktop\förwhat.cd\Velodromer-Per Henrik Wallin [flac]\11 Velodrom 6.wav
Pre-gap length 0:00:02.00
Peak level 90.0 %
Extraction speed 3.0 X
Track quality 100.0 %
Test CRC C07A1E75
Copy CRC C07A1E75
Track not present in AccurateRip database
Copy OK
Track 12
Filename C:\Documents and Settings\Administrator\Desktop\förwhat.cd\Velodromer-Per Henrik Wallin [flac]\12 Velodrom 7.wav
Pre-gap length 0:00:02.00
Peak level 40.6 %
Extraction speed 1.3 X
Track quality 100.0 %
Test CRC A7B09E68
Copy CRC A7B09E68
Track not present in AccurateRip database
Copy OK
Track 13
Filename C:\Documents and Settings\Administrator\Desktop\förwhat.cd\Velodromer-Per Henrik Wallin [flac]\13 Velodrom 8.wav
Pre-gap length 0:00:02.00
Peak level 17.6 %
Extraction speed 1.1 X
Track quality 100.0 %
Test CRC F75A9E0F
Copy CRC F75A9E0F
Track not present in AccurateRip database
Copy OK
Track 14
Filename C:\Documents and Settings\Administrator\Desktop\förwhat.cd\Velodromer-Per Henrik Wallin [flac]\14 Velodrom 9- Satumaa.wav
Pre-gap length 0:00:02.00
Peak level 49.8 %
Extraction speed 3.0 X
Track quality 100.0 %
Test CRC 6A8C331F
Copy CRC 6A8C331F
Track not present in AccurateRip database
Copy OK
Track 15
Filename C:\Documents and Settings\Administrator\Desktop\förwhat.cd\Velodromer-Per Henrik Wallin [flac]\15 Velodrom 10.wav
Pre-gap length 0:00:02.00
Peak level 89.9 %
Extraction speed 3.3 X
Track quality 100.0 %
Test CRC A7575052
Copy CRC A7575052
Track not present in AccurateRip database
Copy OK
Track 16
Filename C:\Documents and Settings\Administrator\Desktop\förwhat.cd\Velodromer-Per Henrik Wallin [flac]\16 Velodrom 11.wav
Pre-gap length 0:00:02.00
Peak level 89.9 %
Extraction speed 1.3 X
Track quality 99.7 %
Test CRC 877A9F1F
Copy CRC 877A9F1F
Track not present in AccurateRip database
Copy OK
Track 17
Filename C:\Documents and Settings\Administrator\Desktop\förwhat.cd\Velodromer-Per Henrik Wallin [flac]\17 Velodrom 12.wav
Pre-gap length 0:00:02.00
Peak level 89.9 %
Extraction speed 1.7 X
Track quality 100.0 %
Test CRC 625B00BE
Copy CRC 625B00BE
Track not present in AccurateRip database
Copy OK
Track 18
Filename C:\Documents and Settings\Administrator\Desktop\förwhat.cd\Velodromer-Per Henrik Wallin [flac]\18 Velodrom 13.wav
Pre-gap length 0:00:02.00
Peak level 63.1 %
Extraction speed 3.2 X
Track quality 100.0 %
Test CRC 6F6742CB
Copy CRC 6F6742CB
Track not present in AccurateRip database
Copy OK
Track 19
Filename C:\Documents and Settings\Administrator\Desktop\förwhat.cd\Velodromer-Per Henrik Wallin [flac]\19 Velodrom 14- Satumaa.wav
Pre-gap length 0:00:02.00
Peak level 89.9 %
Extraction speed 3.1 X
Track quality 100.0 %
Test CRC 384175FB
Copy CRC 384175FB
Track not present in AccurateRip database
Copy OK
Track 20
Filename C:\Documents and Settings\Administrator\Desktop\förwhat.cd\Velodromer-Per Henrik Wallin [flac]\20 Velodrom 15.wav
Pre-gap length 0:00:02.00
Peak level 84.1 %
Extraction speed 2.7 X
Track quality 99.9 %
Test CRC 6489C3BE
Copy CRC 6489C3BE
Track not present in AccurateRip database
Copy OK
Track 21
Filename C:\Documents and Settings\Administrator\Desktop\förwhat.cd\Velodromer-Per Henrik Wallin [flac]\21 Velodrom 16- Söndag.wav
Pre-gap length 0:00:02.00
Peak level 77.8 %
Extraction speed 2.7 X
Track quality 100.0 %
Test CRC A23002A9
Copy CRC A23002A9
Track not present in AccurateRip database
Copy OK
Track 22
Filename C:\Documents and Settings\Administrator\Desktop\förwhat.cd\Velodromer-Per Henrik Wallin [flac]\22 Velodrom 17- Chico Marx.wav
Pre-gap length 0:00:02.00
Peak level 87.3 %
Extraction speed 2.7 X
Track quality 100.0 %
Test CRC F01EC76F
Copy CRC F01EC76F
Track not present in AccurateRip database
Copy OK
Track 23
Filename C:\Documents and Settings\Administrator\Desktop\förwhat.cd\Velodromer-Per Henrik Wallin [flac]\23 Velodrom 18- Hanteringen.wav
Pre-gap length 0:00:02.00
Peak level 89.9 %
Extraction speed 3.6 X
Track quality 100.0 %
Test CRC B1B72FBB
Copy CRC B1B72FBB
Track not present in AccurateRip database
Copy OK
Track 24
Filename C:\Documents and Settings\Administrator\Desktop\förwhat.cd\Velodromer-Per Henrik Wallin [flac]\24 Velodrom 19.wav
Pre-gap length 0:00:02.00
Peak level 89.9 %
Extraction speed 2.0 X
Track quality 99.8 %
Test CRC 4A67AE73
Copy CRC 4A67AE73
Track not present in AccurateRip database
Copy OK
Track 25
Filename C:\Documents and Settings\Administrator\Desktop\förwhat.cd\Velodromer-Per Henrik Wallin [flac]\25 Velodrom 20.wav
Pre-gap length 0:00:02.00
Peak level 61.4 %
Extraction speed 2.7 X
Track quality 100.0 %
Test CRC 5BB953C2
Copy CRC 5BB953C2
Track not present in AccurateRip database
Copy OK
Track 26
Filename C:\Documents and Settings\Administrator\Desktop\förwhat.cd\Velodromer-Per Henrik Wallin [flac]\26 Velodrom 21.wav
Pre-gap length 0:00:02.00
Peak level 89.9 %
Extraction speed 3.0 X
Track quality 100.0 %
Test CRC CD0DCEB8
Copy CRC CD0DCEB8
Track not present in AccurateRip database
Copy OK
Track 27
Filename C:\Documents and Settings\Administrator\Desktop\förwhat.cd\Velodromer-Per Henrik Wallin [flac]\27 Velodrom 22.wav
Pre-gap length 0:00:02.00
Peak level 53.2 %
Extraction speed 2.5 X
Track quality 100.0 %
Test CRC D816DC4F
Copy CRC D816DC4F
Track not present in AccurateRip database
Copy OK
Track 28
Filename C:\Documents and Settings\Administrator\Desktop\förwhat.cd\Velodromer-Per Henrik Wallin [flac]\28 Velodrom 23.wav
Pre-gap length 0:00:02.00
Peak level 73.0 %
Extraction speed 3.1 X
Track quality 100.0 %
Test CRC 1A5EEC72
Copy CRC 1A5EEC72
Track not present in AccurateRip database
Copy OK
Track 29
Filename C:\Documents and Settings\Administrator\Desktop\förwhat.cd\Velodromer-Per Henrik Wallin [flac]\29 Velodrom 24.wav
Pre-gap length 0:00:02.00
Peak level 12.8 %
Extraction speed 1.1 X
Track quality 100.0 %
Test CRC 9E208638
Copy CRC 9E208638
Track not present in AccurateRip database
Copy OK
None of the tracks are present in the AccurateRip database
No errors occurred
End of status report
---- CUETools DB Plugin V2.1.3
[CTDB TOCID: 22cGfBR8nhvimnCtVNTnAEMC6Gc-] disk not present in database, Submit result: 22cGfBR8nhvimnCtVNTnAEMC6Gc- has been uploaded
==== Log checksum 9D444D08DD77E9415349F045DA5FDE7CBE64826C7E9179916B8B7A3F86A6B3D9 ====
 
.cue
REM GENRE Jazz
REM DATE 2005
REM DISCID 9F11041D
REM COMMENT "ExactAudioCopy v1.0b3"
PERFORMER "Per Henrik Wallin"
TITLE "Velodromer"
FILE "01 Fredag.wav" WAVE
TRACK 01 AUDIO
TITLE "Fredag"
PERFORMER "Per Henrik Wallin"
FLAGS DCP
INDEX 01 00:00:00
TRACK 02 AUDIO
TITLE "Full Opus 4"
PERFORMER "Per Henrik Wallin"
FLAGS DCP
INDEX 00 02:16:15
FILE "02 Full Opus 4.wav" WAVE
INDEX 01 00:00:00
TRACK 03 AUDIO
TITLE "I Got It Bad And That Ain't Good"
PERFORMER "Per Henrik Wallin"
FLAGS DCP
INDEX 00 04:36:10
FILE "03 I Got It Bad And That Ain't Good.wav" WAVE
INDEX 01 00:00:00
TRACK 04 AUDIO
TITLE "Evening Roofs Of Calcutta, The Streets, The Stars"
PERFORMER "Per Henrik Wallin"
FLAGS DCP
INDEX 00 04:40:47
FILE "04 Evening Roofs Of Calcutta, The Streets, The Stars.wav" WAVE
INDEX 01 00:00:00
TRACK 05 AUDIO
TITLE "The Great Thomas Fats Waller Remembered"
PERFORMER "Per Henrik Wallin"
FLAGS DCP
INDEX 00 10:31:26
FILE "05 The Great Thomas Fats Waller Remembered.wav" WAVE
INDEX 01 00:00:00
TRACK 06 AUDIO
TITLE "Velodrom 1"
PERFORMER "Per Henrik Wallin"
FLAGS DCP
INDEX 00 04:32:29
FILE "06 Velodrom 1.wav" WAVE
INDEX 01 00:00:00
TRACK 07 AUDIO
TITLE "Velodrom 2"
PERFORMER "Per Henrik Wallin"
FLAGS DCP
INDEX 00 00:38:42
FILE "07 Velodrom 2.wav" WAVE
INDEX 01 00:00:00
TRACK 08 AUDIO
TITLE "Velodrom 3: You Once"
PERFORMER "Per Henrik Wallin"
FLAGS DCP
INDEX 00 01:11:22
FILE "08 Velodrom 3- You Once.wav" WAVE
INDEX 01 00:00:00
TRACK 09 AUDIO
TITLE "Velodrom 4"
PERFORMER "Per Henrik Wallin"
FLAGS DCP
INDEX 00 04:34:14
FILE "09 Velodrom 4.wav" WAVE
INDEX 01 00:00:00
TRACK 10 AUDIO
TITLE "Velodrom 5: Brain Dance"
PERFORMER "Per Henrik Wallin"
FLAGS DCP
INDEX 00 01:10:03
FILE "10 Velodrom 5- Brain Dance.wav" WAVE
INDEX 01 00:00:00
TRACK 11 AUDIO
TITLE "Velodrom 6"
PERFORMER "Per Henrik Wallin"
FLAGS DCP
INDEX 00 02:33:54
FILE "11 Velodrom 6.wav" WAVE
INDEX 01 00:00:00
TRACK 12 AUDIO
TITLE "Velodrom 7"
PERFORMER "Per Henrik Wallin"
FLAGS DCP
INDEX 00 03:34:42
FILE "12 Velodrom 7.wav" WAVE
INDEX 01 00:00:00
TRACK 13 AUDIO
TITLE "Velodrom 8"
PERFORMER "Per Henrik Wallin"
FLAGS DCP
INDEX 00 00:22:12
FILE "13 Velodrom 8.wav" WAVE
INDEX 01 00:00:00
TRACK 14 AUDIO
TITLE "Velodrom 9: Satumaa"
PERFORMER "Per Henrik Wallin"
FLAGS DCP
INDEX 00 00:16:13
FILE "14 Velodrom 9- Satumaa.wav" WAVE
INDEX 01 00:00:00
TRACK 15 AUDIO
TITLE "Velodrom 10"
PERFORMER "Per Henrik Wallin"
FLAGS DCP
INDEX 00 03:01:41
FILE "15 Velodrom 10.wav" WAVE
INDEX 01 00:00:00
TRACK 16 AUDIO
TITLE "Velodrom 11"
PERFORMER "Per Henrik Wallin"
FLAGS DCP
INDEX 00 04:46:49
FILE "16 Velodrom 11.wav" WAVE
INDEX 01 00:00:00
TRACK 17 AUDIO
TITLE "Velodrom 12"
PERFORMER "Per Henrik Wallin"
FLAGS DCP
INDEX 00 00:41:11
FILE "17 Velodrom 12.wav" WAVE
INDEX 01 00:00:00
TRACK 18 AUDIO
TITLE "Velodrom 13"
PERFORMER "Per Henrik Wallin"
FLAGS DCP
INDEX 00 00:29:31
FILE "18 Velodrom 13.wav" WAVE
INDEX 01 00:00:00
TRACK 19 AUDIO
TITLE "Velodrom 14: Satumaa"
PERFORMER "Per Henrik Wallin"
FLAGS DCP
INDEX 00 03:02:66
FILE "19 Velodrom 14- Satumaa.wav" WAVE
INDEX 01 00:00:00
TRACK 20 AUDIO
TITLE "Velodrom 15"
PERFORMER "Per Henrik Wallin"
FLAGS DCP
INDEX 00 02:33:38
FILE "20 Velodrom 15.wav" WAVE
INDEX 01 00:00:00
TRACK 21 AUDIO
TITLE "Velodrom 16: Sцndag"
PERFORMER "Per Henrik Wallin"
FLAGS DCP
INDEX 00 02:54:23
FILE "21 Velodrom 16- Sцndag.wav" WAVE
INDEX 01 00:00:00
TRACK 22 AUDIO
TITLE "Velodrom 17: Chico Marx"
PERFORMER "Per Henrik Wallin"
FLAGS DCP
INDEX 00 01:22:14
FILE "22 Velodrom 17- Chico Marx.wav" WAVE
INDEX 01 00:00:00
TRACK 23 AUDIO
TITLE "Velodrom 18: Hanteringen"
PERFORMER "Per Henrik Wallin"
FLAGS DCP
INDEX 00 01:17:12
FILE "23 Velodrom 18- Hanteringen.wav" WAVE
INDEX 01 00:00:00
TRACK 24 AUDIO
TITLE "Velodrom 19"
PERFORMER "Per Henrik Wallin"
FLAGS DCP
INDEX 00 04:03:05
FILE "24 Velodrom 19.wav" WAVE
INDEX 01 00:00:00
TRACK 25 AUDIO
TITLE "Velodrom 20"
PERFORMER "Per Henrik Wallin"
FLAGS DCP
INDEX 00 01:08:01
FILE "25 Velodrom 20.wav" WAVE
INDEX 01 00:00:00
TRACK 26 AUDIO
TITLE "Velodrom 21"
PERFORMER "Per Henrik Wallin"
FLAGS DCP
INDEX 00 01:04:38
FILE "26 Velodrom 21.wav" WAVE
INDEX 01 00:00:00
TRACK 27 AUDIO
TITLE "Velodrom 22"
PERFORMER "Per Henrik Wallin"
FLAGS DCP
INDEX 00 01:34:26
FILE "27 Velodrom 22.wav" WAVE
INDEX 01 00:00:00
TRACK 28 AUDIO
TITLE "Velodrom 23"
PERFORMER "Per Henrik Wallin"
FLAGS DCP
INDEX 00 00:54:25
FILE "28 Velodrom 23.wav" WAVE
INDEX 01 00:00:00
TRACK 29 AUDIO
TITLE "Velodrom 24"
PERFORMER "Per Henrik Wallin"
FLAGS DCP
INDEX 00 01:36:15
FILE "29 Velodrom 24.wav" WAVE
INDEX 01 00:00:00

другие релизы
По всем вопросам пишите личное сообщение пользователю M0p94ok.
00:55
193
Нет комментариев. Ваш будет первым!