Вы используете незарегистрированную версию компонента "Вкладки"!

Поиск

(Free Jazz) [CD] Paul Giallorenzo (Dave Rempis, Josh Berman, Anton Hatwich, Frank Rosaly) - Get In To Go Out - 2009, FLAC (image+.cue), lossless

Треклист:
Paul Giallorenzo / Get In To Go Out
Жанр: Free Jazz
Носитель: CD
Страна-производитель диска (релиза): US
Год издания: 2009
Издатель (лейбл): 482 Music
Номер по каталогу: ‎482-1061
Аудиокодек: FLAC (*.flac)
Тип рипа: image+.cue
Битрейт аудио: lossless
Продолжительность: 61:18
Источник (релизер): CD
Наличие сканов в содержимом раздачи: нет
Треклист:
1 Vacillation 6:42
2 Twisted Lopes 7:32
3 Porous 9:41
4 Fifth Flow 7:52
5 Steamin In Cleveland 9:00
6 Crazy Ladies 9:47
7 Ajemian's Funk 5:54
8 Double Team 9:03
9 Eternal Circle 6:05
 
Лог создания рипа
Exact Audio Copy V1.0 beta 3 from 29. August 2011
EAC extraction logfile from 29. December 2014, 12:57
Paul Giallorenzo / Get in to Go Out
Used drive : Optiarc DVD RW AD-7170A Adapter: 0 ID: 0
Read mode : Secure
Utilize accurate stream : Yes
Defeat audio cache : Yes
Make use of C2 pointers : No
Read offset correction : 48
Overread into Lead-In and Lead-Out : No
Fill up missing offset samples with silence : Yes
Delete leading and trailing silent blocks : No
Null samples used in CRC calculations : Yes
Used interface : Native Win32 interface for Win NT & 2000
Used output format : User Defined Encoder
Selected bitrate : 320 kBit/s
Quality : High
Add ID3 tag : No
Command line compressor : C:\Program Files\Exact Audio Copy\Flac\flac.exe
Additional command line options : -V -8 -T "Date=%year%" -T "Genre=%genre%" %source%
TOC of the extracted CD
Track | Start | Length | Start sector | End sector
---------------------------------------------------------
1 | 0:00.00 | 6:39.45 | 0 | 29969
2 | 6:39.45 | 7:29.67 | 29970 | 63711
3 | 14:09.37 | 9:38.38 | 63712 | 107099
4 | 23:48.00 | 7:49.39 | 107100 | 142313
5 | 31:37.39 | 8:58.03 | 142314 | 182666
6 | 40:35.42 | 9:45.17 | 182667 | 226558
7 | 50:20.59 | 5:51.38 | 226559 | 252921
8 | 56:12.22 | 9:00.45 | 252922 | 293466
9 | 65:12.67 | 6:05.27 | 293467 | 320868
Range status and errors
Selected range
Filename C:\Documents and Settings\All Users\Paul Giallorenzo - Get in to Go Out.wav
Peak level 89.0 %
Extraction speed 2.3 X
Range quality 100.0 %
Test CRC D8E9126D
Copy CRC D8E9126D
Copy OK
No errors occurred
End of status report
==== Log checksum 61410F686DA6BC6CF6DB93F99F75B6BB71D70CB7883AF6B82411183076CB1BDB ====
 
Содержание индексной карты (.CUE)
REM GENRE Jazz
REM DATE 2009
REM DISCID 7110B609
REM COMMENT "ExactAudioCopy v1.0b3"
PERFORMER "Paul Giallorenzo"
TITLE "Get in to Go Out"
FILE "Paul Giallorenzo - Get in to Go Out.flac" WAVE
TRACK 01 AUDIO
TITLE "Vacillation"
PERFORMER "Paul Giallorenzo"
ISRC 000000000000
INDEX 01 00:00:00
TRACK 02 AUDIO
TITLE "Twisted Lopes"
PERFORMER "Paul Giallorenzo"
ISRC 000000000000
INDEX 01 06:39:45
TRACK 03 AUDIO
TITLE "Porous (for quintet)"
PERFORMER "Paul Giallorenzo"
ISRC 000000000000
INDEX 01 14:09:37
TRACK 04 AUDIO
TITLE "Fifth Flow"
PERFORMER "Paul Giallorenzo"
ISRC 000000000000
INDEX 01 23:48:00
TRACK 05 AUDIO
TITLE "Steamin in Cleveland"
PERFORMER "Paul Giallorenzo"
ISRC 000000000000
INDEX 01 31:37:39
TRACK 06 AUDIO
TITLE "Crazy Ladies"
PERFORMER "Paul Giallorenzo"
ISRC 000000000000
INDEX 01 40:35:42
TRACK 07 AUDIO
TITLE "Ajemian's Funk"
PERFORMER "Paul Giallorenzo"
ISRC 000000000000
INDEX 01 50:20:59
TRACK 08 AUDIO
TITLE "Double Team"
PERFORMER "Paul Giallorenzo"
ISRC 000000000000
INDEX 01 56:12:22
TRACK 09 AUDIO
TITLE "Eternal Circle"
PERFORMER "Paul Giallorenzo"
ISRC 000000000000
INDEX 01 65:12:67
Доп. информация: Recorded July 10th and 11th, 2005 by Todd Carter at Sparrow Sound Design, Chicago, Il.
 
Состав
Cornet – Josh Berman
Double Bass – Anton Hatwich
Drums – Frank Rosaly
Piano – Paul Giallorenzo
Saxophone [Saxophones] – Dave Rempis
По всем вопросам пишите личное сообщение пользователю M0p94ok.
07:47
150
Нет комментариев. Ваш будет первым!