Вы используете незарегистрированную версию компонента "Вкладки"!

Поиск

(Free Improvisation, Experimental) [CD] Andrew Raffo Dewar / Kyle Bruckmann / Gino Robair / John Shiurba - Interactions Quartet - 2014, FLAC (tracks+.cue), lossless

Треклист:
Andrew Raffo Dewar / Kyle Bruckmann / Gino Robair / John Shiurba - Interactions Quartet
Жанр: Free Improvisation, Experimental
Носитель: CD
Страна-производитель диска (релиза): US
Год издания: 2014
Издатель (лейбл): Rastascan Records
Номер по каталогу: BRD068
Аудиокодек: FLAC (*.flac)
Тип рипа: tracks+.cue
Битрейт аудио: lossless
Продолжительность: 72:43
Источник (релизер): whatcd (merzbow1974)
Наличие сканов в содержимом раздачи: нет
Треклист:
1 Interactions #1-6 (2009) / Dedicated to Guillermo Gregorio
2 Piece For Four Instruments #7-11 (2002) / Dedicated to Earle Brown
 
Лог создания рипа
Exact Audio Copy V1.0 beta 3 from 29. August 2011
EAC extraction logfile from 18. December 2014, 17:10
Andrew Raffo Dewar / Interactions Quartet
Used drive : Optiarc DVD RW AD-7240S Adapter: 4 ID: 0
Read mode : Secure
Utilize accurate stream : Yes
Defeat audio cache : Yes
Make use of C2 pointers : No
Read offset correction : 48
Overread into Lead-In and Lead-Out : No
Fill up missing offset samples with silence : Yes
Delete leading and trailing silent blocks : No
Null samples used in CRC calculations : Yes
Used interface : Native Win32 interface for Win NT & 2000
Gap handling : Appended to previous track
Used output format : User Defined Encoder
Selected bitrate : 128 kBit/s
Quality : High
Add ID3 tag : Yes
Command line compressor : C:\Programmi\Exact Audio Copy\Flac\flac.exe
Additional command line options : -8 -V -T "ARTIST=%artist%" -T "TITLE=%title%" -T "ALBUM=%albumtitle%" -T "DATE=%year%" -T "TRACKNUMBER=%tracknr%" -T "GENRE=%genre%" -T "PERFORMER=%albuminterpret%" -T "COMPOSER=%composer%" %haslyrics%--tag-from-file=LYRICS="%lyricsfile%"%haslyrics% -T "ALBUMARTIST=%albumartist%" -T "ALBUM ARTIST=%albumartist%" -T "DISCNUMBER=%cdnumber%" -T "TOTALDISCS=%totalcds%" -T "TOTALTRACKS=%numtracks%" -T "COMMENT=EAC V1.0 beta 2, Secure Mode, Test & Copy, AccurateRip, FLAC -8" %source% -o %dest%
TOC of the extracted CD
Track | Start | Length | Start sector | End sector
---------------------------------------------------------
1 | 0:00.00 | 8:50.10 | 0 | 39759
2 | 8:50.10 | 4:04.59 | 39760 | 58118
3 | 12:54.69 | 6:03.43 | 58119 | 85386
4 | 18:58.37 | 7:18.15 | 85387 | 118251
5 | 26:16.52 | 9:51.22 | 118252 | 162598
6 | 36:07.74 | 11:13.28 | 162599 | 213101
7 | 47:21.27 | 4:23.28 | 213102 | 232854
8 | 51:44.55 | 9:33.74 | 232855 | 275903
9 | 61:18.54 | 4:03.65 | 275904 | 294193
10 | 65:22.44 | 3:25.22 | 294194 | 309590
11 | 68:47.66 | 3:55.69 | 309591 | 327284
Track 1
Filename D:\________WHATCD\[Flac] Andrew Raffo Dewar - Interactions Quartet\01 - Traccia01.wav
Pre-gap length 0:00:02.00
Peak level 98.8 %
Extraction speed 2.7 X
Track quality 100.0 %
Test CRC 4E824D33
Copy CRC 4E824D33
Track not present in AccurateRip database
Copy OK
Track 2
Filename D:\________WHATCD\[Flac] Andrew Raffo Dewar - Interactions Quartet\02 - Traccia02.wav
Peak level 98.8 %
Extraction speed 2.9 X
Track quality 100.0 %
Test CRC E7832D06
Copy CRC E7832D06
Track not present in AccurateRip database
Copy OK
Track 3
Filename D:\________WHATCD\[Flac] Andrew Raffo Dewar - Interactions Quartet\03 - Traccia03.wav
Peak level 98.8 %
Extraction speed 3.3 X
Track quality 100.0 %
Test CRC E53BBE62
Copy CRC E53BBE62
Track not present in AccurateRip database
Copy OK
Track 4
Filename D:\________WHATCD\[Flac] Andrew Raffo Dewar - Interactions Quartet\04 - Traccia04.wav
Peak level 98.8 %
Extraction speed 3.7 X
Track quality 100.0 %
Test CRC 9A197093
Copy CRC 9A197093
Track not present in AccurateRip database
Copy OK
Track 5
Filename D:\________WHATCD\[Flac] Andrew Raffo Dewar - Interactions Quartet\05 - Traccia05.wav
Peak level 98.8 %
Extraction speed 4.0 X
Track quality 99.9 %
Test CRC 53272F38
Copy CRC 53272F38
Track not present in AccurateRip database
Copy OK
Track 6
Filename D:\________WHATCD\[Flac] Andrew Raffo Dewar - Interactions Quartet\06 - Traccia06.wav
Peak level 98.8 %
Extraction speed 4.6 X
Track quality 100.0 %
Test CRC 44FEEC7D
Copy CRC 44FEEC7D
Track not present in AccurateRip database
Copy OK
Track 7
Filename D:\________WHATCD\[Flac] Andrew Raffo Dewar - Interactions Quartet\07 - Traccia07.wav
Peak level 98.8 %
Extraction speed 4.6 X
Track quality 100.0 %
Test CRC 40E78109
Copy CRC 40E78109
Track not present in AccurateRip database
Copy OK
Track 8
Filename D:\________WHATCD\[Flac] Andrew Raffo Dewar - Interactions Quartet\08 - Traccia08.wav
Peak level 59.7 %
Extraction speed 4.8 X
Track quality 99.9 %
Test CRC 7C84DB65
Copy CRC 7C84DB65
Track not present in AccurateRip database
Copy OK
Track 9
Filename D:\________WHATCD\[Flac] Andrew Raffo Dewar - Interactions Quartet\09 - Traccia09.wav
Peak level 56.1 %
Extraction speed 4.9 X
Track quality 100.0 %
Test CRC D2FF0935
Copy CRC D2FF0935
Track not present in AccurateRip database
Copy OK
Track 10
Filename D:\________WHATCD\[Flac] Andrew Raffo Dewar - Interactions Quartet\10 - Traccia10.wav
Peak level 98.8 %
Extraction speed 5.0 X
Track quality 100.0 %
Test CRC 3B58CD17
Copy CRC 3B58CD17
Track not present in AccurateRip database
Copy OK
Track 11
Filename D:\________WHATCD\[Flac] Andrew Raffo Dewar - Interactions Quartet\11 - Traccia11.wav
Peak level 98.8 %
Extraction speed 5.1 X
Track quality 100.0 %
Test CRC 7B458762
Copy CRC 7B458762
Track not present in AccurateRip database
Copy OK
None of the tracks are present in the AccurateRip database
No errors occurred
End of status report
---- CUETools DB Plugin V2.1.3
[CTDB TOCID: KaHdoK7HDameKVItyUoR65BrHk8-] found, Submit result: KaHdoK7HDameKVItyUoR65BrHk8- has been confirmed
[c041ad21] (1/1) Accurately ripped
==== Log checksum B7FDF1FD4C963ABD25DB6920F4AD49C23C76316C8D845FC14F0661BAFC4FF365 ====
 
Содержание индексной карты (.CUE)
REM DISCID 9B110B0B
REM COMMENT "ExactAudioCopy v1.0b3"
CATALOG 0759237006827
PERFORMER "Andrew Raffo Dewar"
TITLE "Interactions Quartet"
FILE "01 - Interactions #2.wav" WAVE
TRACK 01 AUDIO
TITLE "Interactions #2"
PERFORMER "Andrew Raffo Dewar"
ISRC USHRZ1300001
INDEX 01 00:00:00
FILE "02 - Interactions #6.wav" WAVE
TRACK 02 AUDIO
TITLE "Interactions #6"
PERFORMER "Andrew Raffo Dewar"
ISRC USHRZ1300002
INDEX 01 00:00:00
FILE "03 - Interactions #1.wav" WAVE
TRACK 03 AUDIO
TITLE "Interactions #1"
PERFORMER "Andrew Raffo Dewar"
ISRC USHRZ1300003
INDEX 01 00:00:00
FILE "04 - Interactions #5.wav" WAVE
TRACK 04 AUDIO
TITLE "Interactions #5"
PERFORMER "Andrew Raffo Dewar"
ISRC USHRZ1300004
INDEX 01 00:00:00
FILE "05 - Interactions #4.wav" WAVE
TRACK 05 AUDIO
TITLE "Interactions #4"
PERFORMER "Andrew Raffo Dewar"
ISRC USHRZ1300005
INDEX 01 00:00:00
FILE "06 - Pieces For Four Instruments H+A+Solo 4.wav" WAVE
TRACK 06 AUDIO
TITLE "Pieces For Four Instruments H+A+Solo 4"
PERFORMER "Andrew Raffo Dewar"
ISRC USHRZ1300006
INDEX 01 00:00:00
FILE "07 - Pieces For Four Instruments F+Solo 3.wav" WAVE
TRACK 07 AUDIO
TITLE "Pieces For Four Instruments F+Solo 3"
PERFORMER "Andrew Raffo Dewar"
ISRC USHRZ1300007
INDEX 01 00:00:00
FILE "08 - Pieces For Four Instruments C+D.wav" WAVE
TRACK 08 AUDIO
TITLE "Pieces For Four Instruments C+D"
PERFORMER "Andrew Raffo Dewar"
ISRC USHRZ1300008
INDEX 01 00:00:00
FILE "09 - Pieces For Four Instruments G.wav" WAVE
TRACK 09 AUDIO
TITLE "Pieces For Four Instruments G"
PERFORMER "Andrew Raffo Dewar"
ISRC USHRZ1300009
INDEX 01 00:00:00
FILE "10 - Pieces For Four Instruments Solo 1.wav" WAVE
TRACK 10 AUDIO
TITLE "Pieces For Four Instruments Solo 1"
PERFORMER "Andrew Raffo Dewar"
ISRC USHRZ1300010
INDEX 01 00:00:00
FILE "11 - Pieces For Four Instruments E.wav" WAVE
TRACK 11 AUDIO
TITLE "Pieces For Four Instruments E"
PERFORMER "Andrew Raffo Dewar"
ISRC USHRZ1300011
INDEX 01 00:00:00
Доп. информация: Recorded and mixed by Myles Boisen at Guerilla Recording, Oakland, CA, November 6 & 7, 2009.
 
Состав
Andrew Raffo Dewar: soprano saxophone, composer
Kyle Bruckmann: oboe, English horn, analog electronics
Gino Robair: percussion, analog electronics
John Shiurba: electric guitar
По всем вопросам пишите личное сообщение пользователю M0p94ok.
07:47
180
Нет комментариев. Ваш будет первым!