Вы используете незарегистрированную версию компонента "Вкладки"!

Поиск

(Free Jazz) [CD] Michael Marcus - Lotus Symphony - 2008, FLAC (tracks+.cue), lossless

(Free Jazz) [CD] Michael Marcus - Lotus Symphony - 2008, FLAC (tracks+.cue), lossless
Треклист:
Michael Marcus - Lotus Symphony
Жанр: Free Jazz
Носитель: CD
Год издания: 2008
Издатель (лейбл): Not Two Records
Номер по каталогу: MW 807-2
Аудиокодек: FLAC (*.flac)
Тип рипа: tracks+.cue
Битрейт аудио: lossless
Продолжительность: 47:35
Источник: Собственные рипы
Наличие сканов в содержимом раздачи: да
Треклист:
01. As Always, Our Blessings - 9:26
02. Seal Rock - Bird Rock (trio) - 6:37
03. Peace People Theme - 6:56
04. Elypsis - 4:40
05. Sumatra - 8:46
06. Seal Rock - Bird Rock (duet) - 3:50
07. Lotus Symphony - 6:12
08. As Always, Our Blessings (reprise) - 1:08
 
МУЗЫКАНТЫ
Michael Marcus - Bb Clarinet
Antoine Roney - Tenor Saxophone (tr. 3)
John Austria - Piano (tr. 1, 8)
Radu Ben Judah - Bass (tr. 1, 2, 5, 7)
Rashaan Carter - Bass (tr. 3, 4)
Taru Alexander - Drums (tr. 1, 3, 5)
Jay Rosen - Drums (tr. 2, 4, 6, 7)
 
Лог создания рипа
Exact Audio Copy V1.0 beta 3 from 29. August 2011
EAC extraction logfile from 1. October 2014, 2:20
Michael Marcus / Lotus Symphony
Used drive : HL-DT-STDVD-RAM GSA-H55N Adapter: 6 ID: 3
Read mode : Secure
Utilize accurate stream : Yes
Defeat audio cache : Yes
Make use of C2 pointers : No
Read offset correction : 102
Overread into Lead-In and Lead-Out : Yes
Fill up missing offset samples with silence : Yes
Delete leading and trailing silent blocks : No
Null samples used in CRC calculations : Yes
Used interface : Installed external ASPI interface
Gap handling : Appended to previous track
Used output format : User Defined Encoder
Selected bitrate : 128 kBit/s
Quality : High
Add ID3 tag : No
Command line compressor : G:\Program Files\Exact Audio Copy\Encoder\flac.exe
Additional command line options : -V -8 -T "Genre=%genre%" -T "Artist=%artist%" -T "Title=%title%" -T "Album=%albumtitle%" -T "Date=%year%" -T "Tracknumber=%tracknr%" -T "Comment=EAC1.0b3 FLAC -8" %source%
TOC of the extracted CD
Track | Start | Length | Start sector | End sector
---------------------------------------------------------
1 | 0:00.00 | 9:26.13 | 0 | 42462
2 | 9:26.13 | 6:37.26 | 42463 | 72263
3 | 16:03.39 | 6:56.00 | 72264 | 103463
4 | 22:59.39 | 4:40.10 | 103464 | 124473
5 | 27:39.49 | 8:45.67 | 124474 | 163915
6 | 36:25.41 | 3:50.09 | 163916 | 181174
7 | 40:15.50 | 6:11.46 | 181175 | 209045
8 | 46:27.21 | 1:07.65 | 209046 | 214135
Track 1
Filename F:\WAV\01 - As Always, Our Blessings.wav
Pre-gap length 0:00:02.00
Peak level 99.0 %
Extraction speed 1.3 X
Track quality 99.8 %
Test CRC 3BE4AF11
Copy CRC 3BE4AF11
Accurately ripped (confidence 1) [C8A8EF7B] (AR v2)
Copy OK
Track 2
Filename F:\WAV\02 - Seal Rock - Bird Rock (trio).wav
Pre-gap length 0:00:02.00
Peak level 99.0 %
Extraction speed 2.1 X
Track quality 100.0 %
Test CRC BC8C3A4B
Copy CRC BC8C3A4B
Accurately ripped (confidence 1) [78C77B84] (AR v2)
Copy OK
Track 3
Filename F:\WAV\03 - Peace People Theme.wav
Pre-gap length 0:00:02.00
Peak level 100.0 %
Extraction speed 2.1 X
Track quality 99.9 %
Test CRC D709F369
Copy CRC D709F369
Accurately ripped (confidence 1) [91FBDDC3] (AR v2)
Copy OK
Track 4
Filename F:\WAV\04 - Elypsis.wav
Pre-gap length 0:00:02.00
Peak level 85.5 %
Extraction speed 2.4 X
Track quality 100.0 %
Test CRC C357625B
Copy CRC C357625B
Accurately ripped (confidence 1) [72EC41BA] (AR v2)
Copy OK
Track 5
Filename F:\WAV\05 - Sumatra.wav
Pre-gap length 0:00:02.00
Peak level 99.0 %
Extraction speed 2.6 X
Track quality 99.9 %
Test CRC 58AB39A5
Copy CRC 58AB39A5
Accurately ripped (confidence 1) [35D08165] (AR v2)
Copy OK
Track 6
Filename F:\WAV\06 - Seal Rock - Bird Rock (duet).wav
Pre-gap length 0:00:02.00
Peak level 99.0 %
Extraction speed 2.7 X
Track quality 100.0 %
Test CRC A6061435
Copy CRC A6061435
Accurately ripped (confidence 1) [D0D24180] (AR v2)
Copy OK
Track 7
Filename F:\WAV\07 - Lotus Symphony.wav
Pre-gap length 0:00:02.00
Peak level 99.0 %
Extraction speed 3.0 X
Track quality 100.0 %
Test CRC D53286D8
Copy CRC D53286D8
Accurately ripped (confidence 1) [CD652C2F] (AR v2)
Copy OK
Track 8
Filename F:\WAV\08 - As Always, Our Blessings (reprise).wav
Pre-gap length 0:00:02.00
Peak level 97.2 %
Extraction speed 2.9 X
Track quality 100.0 %
Test CRC A29CE536
Copy CRC A29CE536
Accurately ripped (confidence 1) [258D5A77] (AR v2)
Copy OK
All tracks accurately ripped
No errors occurred
End of status report
==== Log checksum 56EF1C01839E3B5611D6FA67D45374186D4E38AFC2D23F627325F1D3634EFB99 ====
 
Содержание индексной карты (.CUE)
REM GENRE Jazz
REM DATE 2008
REM DISCID 7E0B2708
REM COMMENT "ExactAudioCopy v1.0b3"
PERFORMER "Michael Marcus"
TITLE "Lotus Symphony"
FILE "01 - As Always, Our Blessings.wav" WAVE
TRACK 01 AUDIO
TITLE "As Always, Our Blessings"
PERFORMER "Michael Marcus"
INDEX 01 00:00:00
TRACK 02 AUDIO
TITLE "Seal Rock - Bird Rock (trio)"
PERFORMER "Michael Marcus"
INDEX 00 09:24:13
FILE "02 - Seal Rock - Bird Rock (trio).wav" WAVE
INDEX 01 00:00:00
TRACK 03 AUDIO
TITLE "Peace People Theme"
PERFORMER "Michael Marcus"
INDEX 00 06:35:26
FILE "03 - Peace People Theme.wav" WAVE
INDEX 01 00:00:00
TRACK 04 AUDIO
TITLE "Elypsis"
PERFORMER "Michael Marcus"
INDEX 00 06:54:00
FILE "04 - Elypsis.wav" WAVE
INDEX 01 00:00:00
TRACK 05 AUDIO
TITLE "Sumatra"
PERFORMER "Michael Marcus"
INDEX 00 04:38:10
FILE "05 - Sumatra.wav" WAVE
INDEX 01 00:00:00
TRACK 06 AUDIO
TITLE "Seal Rock - Bird Rock (duet)"
PERFORMER "Michael Marcus"
INDEX 00 08:43:67
FILE "06 - Seal Rock - Bird Rock (duet).wav" WAVE
INDEX 01 00:00:00
TRACK 07 AUDIO
TITLE "Lotus Symphony"
PERFORMER "Michael Marcus"
INDEX 00 03:48:09
FILE "07 - Lotus Symphony.wav" WAVE
INDEX 01 00:00:00
TRACK 08 AUDIO
TITLE "As Always, Our Blessings (reprise)"
PERFORMER "Michael Marcus"
INDEX 00 06:09:46
FILE "08 - As Always, Our Blessings (reprise).wav" WAVE
INDEX 01 00:00:00
Ничего особенного. Музыкант изучает (демонстрирует) возможности кларнета, используя весь диапазон и различные приёмы и техники игры, как характерные для инструмента, так и нет, что не часто наблюдается у других кларнетистов, варьируя от композиции к композиции состав. Хоть Маркус и считается мультиинструменталистом, но в кларнете, как мне кажется, он раскрывает свой талант наиболее полно. По крайней мере, мне он на кларнете нравится больше, чем на каком-либо другом инструменте. P.S. As Always, Our Blessings и Sumatra - здоровские.
По всем вопросам пишите личное сообщение пользователю M0p94ok.
05:06
137
Нет комментариев. Ваш будет первым!