Вы используете незарегистрированную версию компонента "Вкладки"!

Поиск

(Free Jazz) [CD] Frederic Borey & Yoann Loustalot - Lucky Dog - 2014, FLAC (tracks+.cue), lossless

(Free Jazz) [CD] Frederic Borey & Yoann Loustalot - Lucky Dog - 2014, FLAC (tracks+.cue), lossless
Треклист:
Frédéric Borey & Yoann Loustalot - Lucky Dog
Жанр: Free Jazz
Носитель: CD
Год издания: 2014
Издатель (лейбл): Fresh Sound Records
Номер по каталогу: FSNT 443
Аудиокодек: FLAC (*.flac)
Тип рипа: tracks+.cue
Битрейт аудио: lossless
Продолжительность: 56:25
Rip by dtromp
Наличие сканов в содержимом раздачи: да
Треклист:
01. The Real All Of Me (4:37)
02. Pass' Crap (4:46)
03. Lucky Dog (7:57)
04. Peaceful Time (3:19)
05. Jacky's Method (4:29)
06. Yonisation (4:49)
07. Interférences (6:21)
08. Sinless (7:11)
09. Involved (6:25)
10. Etrange Ligne (6:32)
Personnel:
Frédéric Borey - ts
Yoann Loustalot - tp, flgh
Yoni Zelnik - b
Fréderic Pasqua - d
 
 
Лог создания рипа
Exact Audio Copy V1.0 beta 3 from 29. August 2011
EAC extraction logfile from 30. September 2014, 23:50
Frederic Borey & Yoann Loustalot / Lucky Dog
Used drive : ATAPI iHBS112 2 Adapter: 2 ID: 0
Read mode : Secure
Utilize accurate stream : Yes
Defeat audio cache : Yes
Make use of C2 pointers : No
Read offset correction : 6
Overread into Lead-In and Lead-Out : No
Fill up missing offset samples with silence : Yes
Delete leading and trailing silent blocks : No
Null samples used in CRC calculations : Yes
Used interface : Native Win32 interface for Win NT & 2000
Gap handling : Appended to previous track
Used output format : User Defined Encoder
Selected bitrate : 1024 kBit/s
Quality : Low
Add ID3 tag : No
Command line compressor : C:\Program Files\FLAC Frontend\tools\flac.exe
Additional command line options : -8 -V -T "ARTIST=%artist%" -T "TITLE=%title%" -T "ALBUM=%albumtitle%" -T "DATE=%year%" -T "TRACKNUMBER=%tracknr%" -T "TOTALTRACKS=%numtracks%" -T "GENRE=%genre%" -T "ALBUMARTIST=%albumartist%" -T "ALBUM ARTIST=%albumartist%" -T "COMPOSER=%composer%" -T "DISCNUMBER=%cdnumber%" -T "TOTALDISCS=%totalcds%" -T "COMMENT=EAC Secure Mode, Test & Copy, AccurateRip, FLAC -8" %source%
TOC of the extracted CD
Track | Start | Length | Start sector | End sector
---------------------------------------------------------
1 | 0:00.00 | 4:37.22 | 0 | 20796
2 | 4:37.22 | 4:46.22 | 20797 | 42268
3 | 9:23.44 | 7:57.14 | 42269 | 78057
4 | 17:20.58 | 3:18.38 | 78058 | 92945
5 | 20:39.21 | 4:29.00 | 92946 | 113120
6 | 25:08.21 | 4:48.48 | 113121 | 134768
7 | 29:56.69 | 6:20.38 | 134769 | 163306
8 | 36:17.32 | 7:11.03 | 163307 | 195634
9 | 43:28.35 | 6:24.51 | 195635 | 224485
10 | 49:53.11 | 6:31.64 | 224486 | 253874
Track 1
Filename P:\DL\Frederic Borey & Yoann Loustalot - Lucky Dog (2014) [FLAC]\01 - The Real All of Me.wav
Pre-gap length 0:00:02.00
Peak level 97.3 %
Extraction speed 5.7 X
Track quality 100.0 %
Test CRC 0491788A
Copy CRC 0491788A
Track not present in AccurateRip database
Copy OK
Track 2
Filename P:\DL\Frederic Borey & Yoann Loustalot - Lucky Dog (2014) [FLAC]\02 - Pass' Crap.wav
Peak level 98.7 %
Extraction speed 6.4 X
Track quality 100.0 %
Test CRC 193FBE1D
Copy CRC 193FBE1D
Track not present in AccurateRip database
Copy OK
Track 3
Filename P:\DL\Frederic Borey & Yoann Loustalot - Lucky Dog (2014) [FLAC]\03 - Lucky Dog.wav
Peak level 99.1 %
Extraction speed 7.4 X
Track quality 100.0 %
Test CRC F582A839
Copy CRC F582A839
Track not present in AccurateRip database
Copy OK
Track 4
Filename P:\DL\Frederic Borey & Yoann Loustalot - Lucky Dog (2014) [FLAC]\04 - Peaceful Time.wav
Peak level 97.1 %
Extraction speed 5.9 X
Track quality 99.9 %
Test CRC F7595FE1
Copy CRC F7595FE1
Track not present in AccurateRip database
Copy OK
Track 5
Filename P:\DL\Frederic Borey & Yoann Loustalot - Lucky Dog (2014) [FLAC]\05 - Jacky's Method.wav
Peak level 97.9 %
Extraction speed 7.9 X
Track quality 100.0 %
Test CRC 39F4FE1B
Copy CRC 39F4FE1B
Track not present in AccurateRip database
Copy OK
Track 6
Filename P:\DL\Frederic Borey & Yoann Loustalot - Lucky Dog (2014) [FLAC]\06 - Yonisation.wav
Peak level 99.9 %
Extraction speed 8.4 X
Track quality 100.0 %
Test CRC 92695CE4
Copy CRC 92695CE4
Track not present in AccurateRip database
Copy OK
Track 7
Filename P:\DL\Frederic Borey & Yoann Loustalot - Lucky Dog (2014) [FLAC]\07 - Interferences.wav
Peak level 99.0 %
Extraction speed 9.1 X
Track quality 100.0 %
Test CRC F647714E
Copy CRC F647714E
Track not present in AccurateRip database
Copy OK
Track 8
Filename P:\DL\Frederic Borey & Yoann Loustalot - Lucky Dog (2014) [FLAC]\08 - Sinless.wav
Peak level 96.9 %
Extraction speed 9.7 X
Track quality 100.0 %
Test CRC 47B5981F
Copy CRC 47B5981F
Track not present in AccurateRip database
Copy OK
Track 9
Filename P:\DL\Frederic Borey & Yoann Loustalot - Lucky Dog (2014) [FLAC]\09 - Involved.wav
Peak level 98.0 %
Extraction speed 10.1 X
Track quality 100.0 %
Test CRC 67146759
Copy CRC 67146759
Track not present in AccurateRip database
Copy OK
Track 10
Filename P:\DL\Frederic Borey & Yoann Loustalot - Lucky Dog (2014) [FLAC]\10 - Etrange Ligne.wav
Peak level 99.3 %
Extraction speed 10.6 X
Track quality 100.0 %
Test CRC 26DB80D6
Copy CRC 26DB80D6
Track not present in AccurateRip database
Copy OK
None of the tracks are present in the AccurateRip database
No errors occurred
End of status report
---- CUETools DB Plugin V2.1.3
[CTDB TOCID: Jjqili2mo2Tix_rJLLClULgfKhk-] disk not present in database, Submit result: Jjqili2mo2Tix_rJLLClULgfKhk- has been uploaded
==== Log checksum ED27D08CA109F56C2D864643C2440893BE2D39E0F15D04C4DC8ABC5FA863A4C4 ====
 
Содержание индексной карты (.CUE)
REM GENRE Jazz
REM DATE 2014
REM DISCID 880D390A
REM COMMENT "ExactAudioCopy v1.0b3"
PERFORMER "Frederic Borey & Yoann Loustalot"
TITLE "Lucky Dog"
FILE "01 - The Real All Of Me.flac" WAVE
TRACK 01 AUDIO
TITLE "The Real All Of Me"
PERFORMER "Frederic Borey & Yoann Loustalot"
INDEX 01 00:00:00
FILE "02 - Pass' Crap.flac" WAVE
TRACK 02 AUDIO
TITLE "Pass' Crap"
PERFORMER "Frederic Borey & Yoann Loustalot"
INDEX 01 00:00:00
FILE "03 - Lucky Dog.flac" WAVE
TRACK 03 AUDIO
TITLE "Lucky Dog"
PERFORMER "Frederic Borey & Yoann Loustalot"
INDEX 01 00:00:00
FILE "04 - Peaceful Time.flac" WAVE
TRACK 04 AUDIO
TITLE "Peaceful Time"
PERFORMER "Frederic Borey & Yoann Loustalot"
INDEX 01 00:00:00
FILE "05 - Jacky's Method.flac" WAVE
TRACK 05 AUDIO
TITLE "Jacky's Method"
PERFORMER "Frederic Borey & Yoann Loustalot"
INDEX 01 00:00:00
FILE "06 - Yonisation.flac" WAVE
TRACK 06 AUDIO
TITLE "Yonisation"
PERFORMER "Frederic Borey & Yoann Loustalot"
INDEX 01 00:00:00
FILE "07 - Interferences.flac" WAVE
TRACK 07 AUDIO
TITLE "Interférences"
PERFORMER "Frederic Borey & Yoann Loustalot"
INDEX 01 00:00:00
FILE "08 - Sinless.flac" WAVE
TRACK 08 AUDIO
TITLE "Sinless"
PERFORMER "Frederic Borey & Yoann Loustalot"
INDEX 01 00:00:00
FILE "09 - Involved.flac" WAVE
TRACK 09 AUDIO
TITLE "Involved"
PERFORMER "Frederic Borey & Yoann Loustalot"
INDEX 01 00:00:00
FILE "10 - Etrange Ligne.flac" WAVE
TRACK 10 AUDIO
TITLE "Etrange Ligne"
PERFORMER "Frederic Borey & Yoann Loustalot"
INDEX 01 00:00:00
По всем вопросам пишите личное сообщение пользователю M0p94ok.
05:07
115
Нет комментариев. Ваш будет первым!