Поиск

(free jazz) [cd] Marshall Allen, Matthew Shipp, Joe Morris - Night Logic 2010, FLAC (tracks+.cue), lossless

(free jazz) [cd] Marshall Allen, Matthew Shipp, Joe Morris - Night Logic 2010, FLAC (tracks+.cue), lossless
Треклист:
(free jazz) [cd] Marshall Allen, Matthew Shipp, Joe Morris - Night Logic 2010, FLAC (tracks+.cue), lossless


Marshall Allen, Matthew Shipp, Joe Morris - Night Logic 2010

Жанр: free jazz
Год выпуска: 2010
Издатель (лейбл): RogueArt / ROG-0028
Формат: FLAC (tracks+.cue)
Битрейт аудио: lossless
Продолжительность 1`10`33
Источник: what.cd

tracks

1 Ark Of Harmonic Covenant 5:41
2 Bow In The Cloud 8:05
3 Night Logic 8:04
4 Heart Aura 4:11
5 Star Dust Splatter 9:41
6 Cosmic Hammer 6:27
7 Particle Physics 7:53
8 Harmonic Quanta 8:11
9 New Age For The Milk Sea Nightmare 9:45
10 Res X 2:07


 
.log
Exact Audio Copy V1.0 beta 4 from 7. December 2014
EAC extraction logfile from 9. February 2016, 16:35
Marshall Allen, Matthew Shipp, Joe Morris / Night Logic
Used drive : MATSHITABD-CMB UJ160 Adapter: 1 ID: 0
Read mode : Secure
Utilize accurate stream : Yes
Defeat audio cache : Yes
Make use of C2 pointers : No
Read offset correction : 103
Overread into Lead-In and Lead-Out : No
Fill up missing offset samples with silence : Yes
Delete leading and trailing silent blocks : No
Null samples used in CRC calculations : Yes
Used interface : Native Win32 interface for Win NT & 2000
Gap handling : Appended to previous track
Used output format : User Defined Encoder
Selected bitrate : 1024 kBit/s
Quality : High
Add ID3 tag : No
Command line compressor : C:\Program Files (x86)\Exact Audio Copy\FLAC\FLAC.EXE
Additional command line options : -8 -V -T "ARTIST=%artist%" -T "TITLE=%title%" -T "ALBUM=%albumtitle%" -T "DATE=%year%" -T "TRACKNUMBER=%tracknr%" -T "GENRE=%genre%" -T "PERFORMER=%albuminterpret%" -T "COMPOSER=%composer%" %haslyrics%--tag-from-file=LYRICS="%lyricsfile%"%haslyrics% -T "ALBUMARTIST=%albumartist%" -T "DISCNUMBER=%cdnumber%" -T "TOTALDISCS=%totalcds%" -T "TOTALTRACKS=%numtracks%" -T "COMMENT=%comment%" %source% -o %dest%
TOC of the extracted CD
Track | Start | Length | Start sector | End sector
---------------------------------------------------------
1 | 0:00.00 | 5:43.63 | 0 | 25787
2 | 5:43.63 | 8:08.05 | 25788 | 62392
3 | 13:51.68 | 8:07.06 | 62393 | 98923
4 | 21:58.74 | 4:15.16 | 98924 | 118064
5 | 26:14.15 | 9:44.27 | 118065 | 161891
6 | 35:58.42 | 6:29.37 | 161892 | 191103
7 | 42:28.04 | 7:56.08 | 191104 | 226811
8 | 50:24.12 | 8:13.70 | 226812 | 263856
9 | 58:38.07 | 9:47.38 | 263857 | 307919
10 | 68:25.45 | 2:07.05 | 307920 | 317449
Track 1
Filename C:\Rips\Marshall Allen, Matthew Shipp, Joe Morris - 2010 - Night Logic\01 Ark of the Harmonic Covenant.wav
Pre-gap length 0:00:02.00
Peak level 100.0 %
Extraction speed 2.6 X
Track quality 100.0 %
Test CRC 7011EDE2
Copy CRC 7011EDE2
Accurately ripped (confidence 1) [D9890E6A] (AR v2)
Copy OK
Track 2
Filename C:\Rips\Marshall Allen, Matthew Shipp, Joe Morris - 2010 - Night Logic\02 Bow in the Cloud.wav
Pre-gap length 0:00:03.10
Peak level 100.0 %
Extraction speed 3.1 X
Track quality 100.0 %
Test CRC 05FE61D4
Copy CRC 05FE61D4
Accurately ripped (confidence 1) [0D8BEF62] (AR v2)
Copy OK
Track 3
Filename C:\Rips\Marshall Allen, Matthew Shipp, Joe Morris - 2010 - Night Logic\03 Night Logic.wav
Pre-gap length 0:00:02.53
Peak level 100.0 %
Extraction speed 3.5 X
Track quality 100.0 %
Test CRC DA910AC3
Copy CRC DA910AC3
Accurately ripped (confidence 1) [DE75F79D] (AR v2)
Copy OK
Track 4
Filename C:\Rips\Marshall Allen, Matthew Shipp, Joe Morris - 2010 - Night Logic\04 Heart Aura.wav
Pre-gap length 0:00:03.09
Peak level 100.0 %
Extraction speed 3.6 X
Track quality 100.0 %
Test CRC A103793D
Copy CRC A103793D
Accurately ripped (confidence 1) [07CFBB7E] (AR v2)
Copy OK
Track 5
Filename C:\Rips\Marshall Allen, Matthew Shipp, Joe Morris - 2010 - Night Logic\05 Star Dust Splatter.wav
Pre-gap length 0:00:04.03
Peak level 100.0 %
Extraction speed 4.1 X
Track quality 100.0 %
Test CRC F5D7E222
Copy CRC F5D7E222
Accurately ripped (confidence 1) [459E03F7] (AR v2)
Copy OK
Track 6
Filename C:\Rips\Marshall Allen, Matthew Shipp, Joe Morris - 2010 - Night Logic\06 Cosmic Hammer.wav
Pre-gap length 0:00:03.06
Peak level 100.0 %
Extraction speed 4.3 X
Track quality 100.0 %
Test CRC 6568F476
Copy CRC 6568F476
Accurately ripped (confidence 1) [3749809D] (AR v2)
Copy OK
Track 7
Filename C:\Rips\Marshall Allen, Matthew Shipp, Joe Morris - 2010 - Night Logic\07 Particle Physics.wav
Pre-gap length 0:00:02.42
Peak level 100.0 %
Extraction speed 4.2 X
Track quality 99.9 %
Test CRC C93BF7C4
Copy CRC C93BF7C4
Accurately ripped (confidence 1) [D01498F3] (AR v2)
Copy OK
Track 8
Filename C:\Rips\Marshall Allen, Matthew Shipp, Joe Morris - 2010 - Night Logic\08 Harmonic Quanta.wav
Pre-gap length 0:00:03.28
Peak level 100.0 %
Extraction speed 5.2 X
Track quality 100.0 %
Test CRC 34F70E58
Copy CRC 34F70E58
Accurately ripped (confidence 1) [58646826] (AR v2)
Copy OK
Track 9
Filename C:\Rips\Marshall Allen, Matthew Shipp, Joe Morris - 2010 - Night Logic\09 New Age For the Milk Sea Nightmare.wav
Pre-gap length 0:00:02.49
Peak level 100.0 %
Extraction speed 5.5 X
Track quality 100.0 %
Test CRC C790A003
Copy CRC C790A003
Accurately ripped (confidence 1) [80A7107A] (AR v2)
Copy OK
Track 10
Filename C:\Rips\Marshall Allen, Matthew Shipp, Joe Morris - 2010 - Night Logic\10 Res X.wav
Pre-gap length 0:00:02.60
Peak level 91.0 %
Extraction speed 4.6 X
Track quality 100.0 %
Test CRC 3446C879
Copy CRC 3446C879
Accurately ripped (confidence 1) [A32EB2E7] (AR v2)
Copy OK
All tracks accurately ripped
No errors occurred
End of status report
---- CUETools DB Plugin V2.1.4
[CTDB TOCID: vkBFPmtyajtWQEPw..A9_a6uzxk-] disk not present in database
Submit result: vkBFPmtyajtWQEPw..A9_a6uzxk- has been uploaded
==== Log checksum 82CDFB1F1BDC3CEC380818588A6EC3A86DF2CA1CA7682187745483408A78C9AF ====
 
.cue
REM GENRE "Free Jazz"
REM DATE 2010
REM DISCID 6B10880A
REM COMMENT "ExactAudioCopy v1.0b4"
PERFORMER "Marshall Allen, Matthew Shipp, Joe Morris"
TITLE "Night Logic"
FILE "01 Ark of the Harmonic Covenant.wav" WAVE
TRACK 01 AUDIO
TITLE "Ark of the Harmonic Covenant"
PERFORMER "Marshall Allen, Matthew Shipp, Joe Morris"
INDEX 01 00:00:00
TRACK 02 AUDIO
TITLE "Bow in the Cloud"
PERFORMER "Marshall Allen, Matthew Shipp, Joe Morris"
INDEX 00 05:40:53
FILE "02 Bow in the Cloud.wav" WAVE
INDEX 01 00:00:00
TRACK 03 AUDIO
TITLE "Night Logic"
PERFORMER "Marshall Allen, Matthew Shipp, Joe Morris"
INDEX 00 08:05:27
FILE "03 Night Logic.wav" WAVE
INDEX 01 00:00:00
TRACK 04 AUDIO
TITLE "Heart Aura"
PERFORMER "Marshall Allen, Matthew Shipp, Joe Morris"
INDEX 00 08:03:72
FILE "04 Heart Aura.wav" WAVE
INDEX 01 00:00:00
TRACK 05 AUDIO
TITLE "Star Dust Splatter"
PERFORMER "Marshall Allen, Matthew Shipp, Joe Morris"
INDEX 00 04:11:13
FILE "05 Star Dust Splatter.wav" WAVE
INDEX 01 00:00:00
TRACK 06 AUDIO
TITLE "Cosmic Hammer"
PERFORMER "Marshall Allen, Matthew Shipp, Joe Morris"
INDEX 00 09:41:21
FILE "06 Cosmic Hammer.wav" WAVE
INDEX 01 00:00:00
TRACK 07 AUDIO
TITLE "Particle Physics"
PERFORMER "Marshall Allen, Matthew Shipp, Joe Morris"
INDEX 00 06:26:70
FILE "07 Particle Physics.wav" WAVE
INDEX 01 00:00:00
TRACK 08 AUDIO
TITLE "Harmonic Quanta"
PERFORMER "Marshall Allen, Matthew Shipp, Joe Morris"
INDEX 00 07:52:55
FILE "08 Harmonic Quanta.wav" WAVE
INDEX 01 00:00:00
TRACK 09 AUDIO
TITLE "New Age For the Milk Sea Nightmare"
PERFORMER "Marshall Allen, Matthew Shipp, Joe Morris"
INDEX 00 08:11:21
FILE "09 New Age For the Milk Sea Nightmare.wav" WAVE
INDEX 01 00:00:00
TRACK 10 AUDIO
TITLE "Res X"
PERFORMER "Marshall Allen, Matthew Shipp, Joe Morris"
INDEX 00 09:44:53
FILE "10 Res X.wav" WAVE
INDEX 01 00:00:00
https://www.discogs.com/Marshall-Allen-Matthew-Shipp-Joe-Morris-Night-Logic/release/2265460
другие релизы
21:41
320
Нет комментариев. Ваш будет первым!