Поиск

(free jazz) [cd] Indigo Trio (Nicole Mitchell, Harrison Bankhead, Hamid Drake) - Anaya 2008, FLAC (tracks+.cue), lossless

(free jazz) [cd] Indigo Trio (Nicole Mitchell, Harrison Bankhead, Hamid Drake) - Anaya 2008, FLAC (tracks+.cue), lossless
(free jazz) [cd] Indigo Trio (Nicole Mitchell, Harrison Bankhead, Hamid Drake) - Anaya 2008, FLAC (tracks+.cue), lossless


Indigo Trio - Anaya 2008

Жанр: free jazz
Год выпуска: 2008
Издатель (лейбл):RogueArt / ROG-0018
Формат: FLAC (tracks+.cue)
Битрейт аудио: lossless
Продолжительность1`07`59
Источник: what.cd
Nicole Mitchell : flute, alto flute, piccolo
Harrison Bankhead : basse, cello
Hamid Drake : drumset, frame drum

tracks

1. Sho Ya Right (8:10)
2. A Child's Curiosity (13:10)
3. Anaya with the Sunlight (13:58)
4. Song for Ma'at (Ma-ah-t) (8:48)
5. Beloved's Reflection (5:38)
6. Wheatgrass (7:19)
7. Anaya with the Moon (8:34)
8. Affirmation of the One (2:25)


 
.log
Exact Audio Copy V1.0 beta 4 from 7. December 2014
EAC extraction logfile from 11. February 2016, 14:49
Indigo Trio / Anaya
Used drive : MATSHITABD-CMB UJ160 Adapter: 1 ID: 0
Read mode : Secure
Utilize accurate stream : Yes
Defeat audio cache : Yes
Make use of C2 pointers : No
Read offset correction : 103
Overread into Lead-In and Lead-Out : No
Fill up missing offset samples with silence : Yes
Delete leading and trailing silent blocks : No
Null samples used in CRC calculations : Yes
Used interface : Native Win32 interface for Win NT & 2000
Gap handling : Appended to previous track
Used output format : User Defined Encoder
Selected bitrate : 1024 kBit/s
Quality : High
Add ID3 tag : No
Command line compressor : C:\Program Files (x86)\Exact Audio Copy\FLAC\FLAC.EXE
Additional command line options : -8 -V -T "ARTIST=%artist%" -T "TITLE=%title%" -T "ALBUM=%albumtitle%" -T "DATE=%year%" -T "TRACKNUMBER=%tracknr%" -T "GENRE=%genre%" -T "PERFORMER=%albuminterpret%" -T "COMPOSER=%composer%" %haslyrics%--tag-from-file=LYRICS="%lyricsfile%"%haslyrics% -T "ALBUMARTIST=%albumartist%" -T "DISCNUMBER=%cdnumber%" -T "TOTALDISCS=%totalcds%" -T "TOTALTRACKS=%numtracks%" -T "COMMENT=%comment%" %source% -o %dest%
TOC of the extracted CD
Track | Start | Length | Start sector | End sector
---------------------------------------------------------
1 | 0:00.00 | 8:13.01 | 0 | 36975
2 | 8:13.01 | 13:06.53 | 36976 | 95978
3 | 21:19.54 | 13:58.54 | 95979 | 158882
4 | 35:18.33 | 8:46.48 | 158883 | 198380
5 | 44:05.06 | 5:35.66 | 198381 | 223571
6 | 49:40.72 | 7:18.15 | 223572 | 256436
7 | 56:59.12 | 8:35.12 | 256437 | 295073
8 | 65:34.24 | 2:24.48 | 295074 | 305921
Track 1
Filename C:\Rips\Indigo Trio - 2008 - Anaya\01 Sho Ya Right.wav
Pre-gap length 0:00:02.00
Peak level 96.2 %
Extraction speed 2.4 X
Track quality 99.9 %
Test CRC 3B233A42
Copy CRC 3B233A42
Accurately ripped (confidence 1) [C73E4FA8] (AR v1)
Copy OK
Track 2
Filename C:\Rips\Indigo Trio - 2008 - Anaya\02 A Child's Curiosity.wav
Pre-gap length 0:00:03.71
Peak level 96.2 %
Extraction speed 3.5 X
Track quality 100.0 %
Test CRC 2346C504
Copy CRC 2346C504
Accurately ripped (confidence 1) [45610C18] (AR v1)
Copy OK
Track 3
Filename C:\Rips\Indigo Trio - 2008 - Anaya\03 Anaya with the Sunlight.wav
Pre-gap length 0:00:03.18
Peak level 96.2 %
Extraction speed 4.0 X
Track quality 100.0 %
Test CRC 3A9AF0F6
Copy CRC 3A9AF0F6
Accurately ripped (confidence 1) [D81F8B58] (AR v1)
Copy OK
Track 4
Filename C:\Rips\Indigo Trio - 2008 - Anaya\04 Song for Ma'at (Ma-ah-t).wav
Pre-gap length 0:00:03.51
Peak level 92.6 %
Extraction speed 4.3 X
Track quality 100.0 %
Test CRC B24FCF49
Copy CRC B24FCF49
Accurately ripped (confidence 1) [42D16526] (AR v1)
Copy OK
Track 5
Filename C:\Rips\Indigo Trio - 2008 - Anaya\05 Beloved's Reflection.wav
Pre-gap length 0:00:03.30
Peak level 96.2 %
Extraction speed 4.4 X
Track quality 100.0 %
Test CRC 0FCFDD0A
Copy CRC 0FCFDD0A
Accurately ripped (confidence 1) [869294AF] (AR v1)
Copy OK
Track 6
Filename C:\Rips\Indigo Trio - 2008 - Anaya\06 Wheatgrass.wav
Pre-gap length 0:00:03.09
Peak level 96.2 %
Extraction speed 4.8 X
Track quality 100.0 %
Test CRC 6701EC25
Copy CRC 6701EC25
Accurately ripped (confidence 1) [04F151F3] (AR v1)
Copy OK
Track 7
Filename C:\Rips\Indigo Trio - 2008 - Anaya\07 Anaya with the Moon.wav
Pre-gap length 0:00:03.45
Peak level 96.2 %
Extraction speed 5.0 X
Track quality 100.0 %
Test CRC B5A1A04E
Copy CRC B5A1A04E
Accurately ripped (confidence 1) [5EDF0714] (AR v1)
Copy OK
Track 8
Filename C:\Rips\Indigo Trio - 2008 - Anaya\08 Affirmation of the One.wav
Pre-gap length 0:00:04.09
Peak level 99.4 %
Extraction speed 4.5 X
Track quality 100.0 %
Test CRC 94F745A8
Copy CRC 94F745A8
Accurately ripped (confidence 1) [A384AF67] (AR v1)
Copy OK
All tracks accurately ripped
No errors occurred
End of status report
---- CUETools DB Plugin V2.1.4
[CTDB TOCID: qAhR6XH4T4YxUNyw58rXK68Dl2U-] found
Submit result: qAhR6XH4T4YxUNyw58rXK68Dl2U- has been confirmed
Track | CTDB Status
1 | (3/3) Accurately ripped
2 | (3/3) Accurately ripped
3 | (3/3) Accurately ripped
4 | (3/3) Accurately ripped
5 | (3/3) Accurately ripped
6 | (3/3) Accurately ripped
7 | (3/3) Accurately ripped
8 | (3/3) Accurately ripped
==== Log checksum CACB22597A2E574C116BB280D3DBEB325D0E5AEEF1965A03C1EBE2153C179334 ====
 
.cue
REM GENRE "Free Jazz"
REM DATE 2008
REM DISCID 6C0FEE08
REM COMMENT "ExactAudioCopy v1.0b4"
PERFORMER "Indigo Trio"
TITLE "Anaya"
FILE "01 Sho Ya Right.wav" WAVE
TRACK 01 AUDIO
TITLE "Sho Ya Right"
PERFORMER "Indigo Trio"
INDEX 01 00:00:00
TRACK 02 AUDIO
TITLE "A Child's Curiosity"
PERFORMER "Indigo Trio"
INDEX 00 08:09:05
FILE "02 A Child's Curiosity.wav" WAVE
INDEX 01 00:00:00
TRACK 03 AUDIO
TITLE "Anaya with the Sunlight"
PERFORMER "Indigo Trio"
INDEX 00 13:03:35
FILE "03 Anaya with the Sunlight.wav" WAVE
INDEX 01 00:00:00
TRACK 04 AUDIO
TITLE "Song for Ma'at (Ma-ah-t)"
PERFORMER "Indigo Trio"
INDEX 00 13:55:03
FILE "04 Song for Ma'at (Ma-ah-t).wav" WAVE
INDEX 01 00:00:00
TRACK 05 AUDIO
TITLE "Beloved's Reflection"
PERFORMER "Indigo Trio"
INDEX 00 08:43:18
FILE "05 Beloved's Reflection.wav" WAVE
INDEX 01 00:00:00
TRACK 06 AUDIO
TITLE "Wheatgrass"
PERFORMER "Indigo Trio"
INDEX 00 05:32:57
FILE "06 Wheatgrass.wav" WAVE
INDEX 01 00:00:00
TRACK 07 AUDIO
TITLE "Anaya with the Moon"
PERFORMER "Indigo Trio"
INDEX 00 07:14:45
FILE "07 Anaya with the Moon.wav" WAVE
INDEX 01 00:00:00
TRACK 08 AUDIO
TITLE "Affirmation of the One"
PERFORMER "Indigo Trio"
INDEX 00 08:31:03
FILE "08 Affirmation of the One.wav" WAVE
INDEX 01 00:00:00
https://www.discogs.com/Indigo-Trio-Anaya/release/1654195
другие релизы
22:40
350
Нет комментариев. Ваш будет первым!