Вы используете незарегистрированную версию компонента "Вкладки"!

Поиск

(free jazz) [cd] Marion Brown Septet - Juba-Lee (1966) , FLAC (tracks+.cue), lossless

(free jazz) [cd] Marion Brown Septet - Juba-Lee (1966) , FLAC (tracks+.cue), lossless
Треклист:
(free jazz) [cd] Marion Brown Septet - Juba-Lee (1966) , FLAC (tracks+.cue), lossless


Marion Brown Septet - Juba-Lee (1966)

Жанр: free jazz
Год выпуска: 1966
Издатель (лейбл):1990, Fontana / PHCE-1007 / Fontana New Jazz Series – 7
Формат: FLAC (tracks+.cue)
Битрейт аудио: lossless
Продолжительность
Источник: what.cd
Marion Brown - alto sax
Grachan Moncur III - trombone
Alan Shorter - trumpet, flugelhorn
Bennie Maupin - tenor sax
Dave Burrell - piano
Reggie Johnson - bass
Beaver Harris - drums
Recorded: November, New York City
Taken from the Japanese CD: Fontana PHCE-1007

tracks

1 512E12 15:37
2 The Visitor 9:13
3 Juba-Lee 12:31
4 Iditus 12:15


 
.log
Exact Audio Copy V0.99 prebeta 4 from 23. January 2008
EAC extraction logfile from 21. May 2008, 14:29
Marion Brown Septet / Juba-Lee
Used drive : _NEC DVD_RW ND-3520A Adapter: 1 ID: 0
Read mode : Secure
Utilize accurate stream : Yes
Defeat audio cache : Yes
Make use of C2 pointers : No
Read offset correction : 48
Overread into Lead-In and Lead-Out : No
Fill up missing offset samples with silence : Yes
Delete leading and trailing silent blocks : No
Null samples used in CRC calculations : Yes
Used interface : Installed external ASPI interface
Gap handling : Appended to previous track
Used output format : User Defined Encoder
Selected bitrate : 1024 kBit/s
Quality : High
Add ID3 tag : No
Command line compressor : C:\Program Files\FLAC\flac.exe
Additional command line options : -8 -V -T "ARTIST=%a" -T "TITLE=%t" -T "ALBUM=%g" -T "DATE=%y" -T "TRACKNUMBER=%n" -T "GENRE=%m" -T "COMMENT=EAC FLAC -8" %s
TOC of the extracted CD
Track | Start | Length | Start sector | End sector
---------------------------------------------------------
1 | 0:00.00 | 15:42.02 | 0 | 70651
2 | 15:42.02 | 9:18.05 | 70652 | 112506
3 | 25:00.07 | 12:35.68 | 112507 | 169199
4 | 37:36.00 | 12:19.00 | 169200 | 224624
Track 1
Filename C:\Documents and Settings\All Users\Documents\Uploads\P\Marion Brown Septet - Juba-Lee (1966) [FLAC]\01 - 512 E 12.wav
Pre-gap length 0:00:02.00
Peak level 90.2 %
Track quality 99.9 %
Test CRC C1366FCF
Copy CRC C1366FCF
Track not present in AccurateRip database
Copy OK
Track 2
Filename C:\Documents and Settings\All Users\Documents\Uploads\P\Marion Brown Septet - Juba-Lee (1966) [FLAC]\02 - The Visitor.wav
Pre-gap length 0:00:00.12
Peak level 100.0 %
Track quality 100.0 %
Test CRC D2F9CED9
Copy CRC D2F9CED9
Track not present in AccurateRip database
Copy OK
Track 3
Filename C:\Documents and Settings\All Users\Documents\Uploads\P\Marion Brown Septet - Juba-Lee (1966) [FLAC]\03 - Juba-Lee.wav
Pre-gap length 0:00:03.08
Peak level 100.0 %
Track quality 100.0 %
Test CRC 92B45575
Copy CRC 92B45575
Track not present in AccurateRip database
Copy OK
Track 4
Filename C:\Documents and Settings\All Users\Documents\Uploads\P\Marion Brown Septet - Juba-Lee (1966) [FLAC]\04 - Iditus.wav
Pre-gap length 0:00:01.22
Peak level 99.2 %
Track quality 100.0 %
Test CRC 7DE4A0A9
Copy CRC 7DE4A0A9
Track not present in AccurateRip database
Copy OK
None of the tracks are present in the AccurateRip database
No errors occurred
End of status report
 
.cue
REM DISCID 2C0BB304
REM COMMENT "ExactAudioCopy v0.99pb4"
PERFORMER "Marion Brown Septet"
TITLE "Juba-Lee"
FILE "01 - 512 E 12.wav" WAVE
TRACK 01 AUDIO
TITLE "512 E 12"
PERFORMER "Marion Brown Septet"
INDEX 01 00:00:00
TRACK 02 AUDIO
TITLE "The Visitor"
PERFORMER "Marion Brown Septet"
INDEX 00 15:41:68
FILE "02 - The Visitor.wav" WAVE
INDEX 01 00:00:00
TRACK 03 AUDIO
TITLE "Juba-Lee"
PERFORMER "Marion Brown Septet"
INDEX 00 09:14:74
FILE "03 - Juba-Lee.wav" WAVE
INDEX 01 00:00:00
TRACK 04 AUDIO
TITLE "Iditus"
PERFORMER "Marion Brown Septet"
INDEX 00 12:34:51
FILE "04 - Iditus.wav" WAVE
INDEX 01 00:00:00
 
.accurip
[CUETools log; Date: 04/01/16 19:24:17; Version: 2.1.4]
[CTDB TOCID: 289x0R7W4EtbQm5KJAswwUBTU_I-] disk not present in database.
[AccurateRip ID: 0008cdd8-0022c55f-2c0bb304] found.
Track [ CRC | V2 ] Status
01 [8cf77df7|ecdaf892] (0+0/2) No match
02 [7320bd2e|b6beb98e] (0+0/2) No match
03 [9cc0dd6e|f02b71f3] (0+0/5) No match
04 [bcd5c000|6a13bf27] (0+0/2) No match
Offsetted by -24:
01 [ecb181b8] (2/2) Accurately ripped
02 [d969abca] (2/2) Accurately ripped
03 [08edacda] (1/5) Accurately ripped
04 [85c207df] (2/2) Accurately ripped
Track Peak [ CRC32 ] [W/O NULL] [ LOG ]
-- 100.0 [A4668625] [F0ACC94C]
01 90.2 [C1366FCF] [2D80FE9E] CRC32
02 100.0 [D2F9CED9] [B3F9EFF7] CRC32
03 100.0 [92B45575] [E63C37CC] CRC32
04 99.2 [7DE4A0A9] [06351CE3] CRC32
http://www.discogs.com/Marion-Brown-Septet-Juba-Lee/release/2748650
другие релизы
По всем вопросам пишите личное сообщение пользователю M0p94ok.
18:04
256
Нет комментариев. Ваш будет первым!