Вы используете незарегистрированную версию компонента "Вкладки"!

Поиск

(ECM, Free Jazz) [CD] The Art Ensemble Of Chicago - Nice Guys - 1979, FLAC (tracks+.cue), lossless

(ECM, Free Jazz) [CD] The Art Ensemble Of Chicago - Nice Guys - 1979, FLAC (tracks+.cue), lossless
Треклист:
The Art Ensemble Of Chicago / Nice Guys
Жанр: Free Jazz
Носитель: CD
Страна-производитель диска (релиза): Germany
Год издания: 1979
Издатель (лейбл): ECM Records
Номер по каталогу: ECM 1126
Страна исполнителя (группы): US
Аудиокодек: FLAC (*.flac)
Тип рипа: tracks+.cue
Битрейт аудио: lossless
Продолжительность: 00:44:00
Источник (релизер): what.cd
Наличие сканов в содержимом раздачи: нет
Треклист:
1. Ja
2. Nice Guys
3. Folkus
4. 597-59
5. Cyp
6. Dreaming Of The Master
 
Лог создания рипа
Exact Audio Copy V0.99 prebeta 5 from 4. May 2009
EAC extraction logfile from 28. April 2010, 0:50
Art Ensemble Of Chicago / Nice Guys
Used drive : PIONEER DVD-RW DVR-111D Adapter: 3 ID: 0
Read mode : Secure
Utilize accurate stream : Yes
Defeat audio cache : Yes
Make use of C2 pointers : No
Read offset correction : 48
Overread into Lead-In and Lead-Out : No
Fill up missing offset samples with silence : Yes
Delete leading and trailing silent blocks : No
Null samples used in CRC calculations : Yes
Used interface : Native Win32 interface for Win NT & 2000
Gap handling : Appended to previous track
Used output format : User Defined Encoder
Selected bitrate : 128 kBit/s
Quality : High
Add ID3 tag : No
Command line compressor : C:\Program Files\Exact Audio Copy\Flac\flac.exe
Additional command line options : -V -8 -T "artist=%a" -T "title=%t" -T "album=%g" -T "date=%y" -T "tracknumber=%n" -T "genre=%m" %s
TOC of the extracted CD
Track | Start | Length | Start sector | End sector
---------------------------------------------------------
1 | 0:00.32 | 8:43.25 | 32 | 39281
2 | 8:43.57 | 1:45.00 | 39282 | 47156
3 | 10:28.57 | 11:03.50 | 47157 | 96931
4 | 21:32.32 | 6:46.50 | 96932 | 127431
5 | 28:19.07 | 4:53.63 | 127432 | 149469
6 | 33:12.70 | 11:40.02 | 149470 | 201971
Track 1
Filename D:\EACrips\Art Ensemble Of Chicago - 01 - Ja.wav
Pre-gap length 0:00:02.42
Peak level 83.9 %
Track quality 99.9 %
Test CRC BEB0DC25
Copy CRC BEB0DC25
Cannot be verified as accurate (confidence 3) [72B761C8], AccurateRip returned [3107F4B6]
Copy OK
Track 2
Filename D:\EACrips\Art Ensemble Of Chicago - 02 - Nice Guys.wav
Pre-gap length 0:00:03.60
Peak level 75.9 %
Track quality 100.0 %
Test CRC 5037AB4C
Copy CRC 5037AB4C
Cannot be verified as accurate (confidence 3) [B2FCC6F7], AccurateRip returned [0E7C1A3D]
Copy OK
Track 3
Filename D:\EACrips\Art Ensemble Of Chicago - 03 - Folkus.wav
Pre-gap length 0:00:03.60
Peak level 75.5 %
Track quality 100.0 %
Test CRC 486397F1
Copy CRC 486397F1
Cannot be verified as accurate (confidence 3) [71E343FF], AccurateRip returned [3E7F96CF]
Copy OK
Track 4
Filename D:\EACrips\Art Ensemble Of Chicago - 04 - 597-59.wav
Pre-gap length 0:00:04.00
Peak level 85.0 %
Track quality 100.0 %
Test CRC E258CA66
Copy CRC E258CA66
Cannot be verified as accurate (confidence 3) [8A1DAA40], AccurateRip returned [AEAF9BD8]
Copy OK
Track 5
Filename D:\EACrips\Art Ensemble Of Chicago - 05 - Cyp.wav
Pre-gap length 0:00:02.89
Peak level 70.0 %
Track quality 99.9 %
Test CRC 7FC99829
Copy CRC 7FC99829
Cannot be verified as accurate (confidence 3) [25413C41], AccurateRip returned [80E88559]
Copy OK
Track 6
Filename D:\EACrips\Art Ensemble Of Chicago - 06 - Dreaming Of The Master.wav
Pre-gap length 0:00:03.90
Peak level 79.1 %
Track quality 100.0 %
Test CRC F3B46265
Copy CRC F3B46265
Cannot be verified as accurate (confidence 3) [C65981E5], AccurateRip returned [44B3C8FF]
Copy OK
No tracks could be verified as accurate
You may have a different pressing from the one(s) in the database
No errors occurred
End of status report
 
Содержание индексной карты (.CUE)
REM GENRE Jazz
REM DATE 1979
REM DISCID 470A8406
REM COMMENT "ExactAudioCopy v0.99pb5"
FILE "Art Ensemble Of Chicago - 01 - Ja.wav" WAVE
TRACK 01 AUDIO
PREGAP 00:00:32
INDEX 01 00:00:00
TRACK 02 AUDIO
INDEX 00 08:39:55
FILE "Art Ensemble Of Chicago - 02 - Nice Guys.wav" WAVE
INDEX 01 00:00:00
TRACK 03 AUDIO
INDEX 00 01:41:30
FILE "Art Ensemble Of Chicago - 03 - Folkus.wav" WAVE
INDEX 01 00:00:00
TRACK 04 AUDIO
INDEX 00 10:59:50
FILE "Art Ensemble Of Chicago - 04 - 597-59.wav" WAVE
INDEX 01 00:00:00
TRACK 05 AUDIO
INDEX 00 06:43:58
FILE "Art Ensemble Of Chicago - 05 - Cyp.wav" WAVE
INDEX 01 00:00:00
TRACK 06 AUDIO
INDEX 00 04:49:70
FILE "Art Ensemble Of Chicago - 06 - Dreaming Of The Master.wav" WAVE
INDEX 01 00:00:00
 
Состав
Malachi Favors - Bass, Percussion, Melodica
Famoudou Don Moye - Percussion
Roscoe Mitchell - Saxophone, Flute, Clarinet, Gong
Joseph Jarman - Saxophone, Vocals, Flute, Clarinet
Lester Bowie - Trumpet, Celesta, Bass Drum
По всем вопросам пишите личное сообщение пользователю M0p94ok.
18:05
178
Нет комментариев. Ваш будет первым!