Вы используете незарегистрированную версию компонента "Вкладки"!

Поиск

(free jazz) [CD] Marco Eneidi, William Parker, Donald Robinson - Cherry Box 1998, FLAC (tracks+.cue), lossless

(free jazz) [CD] Marco Eneidi, William Parker, Donald Robinson - Cherry Box 1998, FLAC (tracks+.cue), lossless
Треклист:


Marco Eneidi, William Parker, Donald Robinson
Cherry Box 1998
Жанр: free jazz
Год выпуска: 1998
Издатель (лейбл):Eremite Records / MTE-25
Формат: FLAC (tracks+.cue)
Битрейт аудио: lossless
Продолжительность 1`09`44
Источник: what.cd, weareborg
Marco Eneidi: alto saxophone
William Parker: bass
Donald Robinson: drums
Recorded live on September 20, 1998 at the Mills College Concert Hall, Oakland, CA, USA.

tracks
1. Cherry Box (4:16)
2. Slashing the Bird (13:54)
3. Forget It (14:01)
4. Barbequed Brahms (19:10)
5. One More Thing (12:38)
6. Spank (5:42)


 
.log
Exact Audio Copy V0.99 prebeta 4 from 23. January 2008
EAC extraction logfile from 30. April 2009, 19:12
Marco Eneidi/William Parker/Donald Robinson / Cherry Box
Used drive : HL-DT-STDVD-RAM GSA-H50N Adapter: 2 ID: 0
Read mode : Secure
Utilize accurate stream : Yes
Defeat audio cache : Yes
Make use of C2 pointers : No
Read offset correction : 102
Overread into Lead-In and Lead-Out : No
Fill up missing offset samples with silence : Yes
Delete leading and trailing silent blocks : No
Null samples used in CRC calculations : Yes
Used interface : Native Win32 interface for Win NT & 2000
Gap handling : Appended to previous track
Used output format : User Defined Encoder
Selected bitrate : 1024 kBit/s
Quality : High
Add ID3 tag : No
Command line compressor : C:\Program Files\FLAC\flac.exe
Additional command line options : -8 -V -T "ARTIST=%a" -T "TITLE=%t" -T "ALBUM=%g" -T "DATE=%y" -T "TRACKNUMBER=%n" -T "GENRE=%m" -T "COMMENT=EAC FLAC -8" %s
TOC of the extracted CD
Track | Start | Length | Start sector | End sector
---------------------------------------------------------
1 | 0:00.00 | 4:16.46 | 0 | 19245
2 | 4:16.46 | 13:54.28 | 19246 | 81823
3 | 18:10.74 | 14:01.55 | 81824 | 144953
4 | 32:12.54 | 19:10.36 | 144954 | 231239
5 | 51:23.15 | 12:38.72 | 231240 | 288161
6 | 64:02.12 | 5:42.24 | 288162 | 313835
Track 1
Filename C:\EAC Rips\Eneidi, Parker, Robinson - Cherry Box (1998) [FLAC] {MTE 025}\01 - Cherry Box.wav
Pre-gap length 0:00:02.00
Peak level 98.8 %
Track quality 100.0 %
Test CRC 753608D3
Copy CRC 753608D3
Cannot be verified as accurate (confidence 1) [376BD5D3], AccurateRip returned [B680F80B]
Copy OK
Track 2
Filename C:\EAC Rips\Eneidi, Parker, Robinson - Cherry Box (1998) [FLAC] {MTE 025}\02 - Slashing The Bird.wav
Pre-gap length 0:00:04.78
Peak level 98.8 %
Track quality 100.0 %
Test CRC E30731C9
Copy CRC E30731C9
Cannot be verified as accurate (confidence 1) [CEE6C096], AccurateRip returned [8842870D]
Copy OK
Track 3
Filename C:\EAC Rips\Eneidi, Parker, Robinson - Cherry Box (1998) [FLAC] {MTE 025}\03 - Forget It.wav
Pre-gap length 0:00:03.80
Peak level 98.8 %
Track quality 100.0 %
Test CRC 7B0CBCA7
Copy CRC 7B0CBCA7
Cannot be verified as accurate (confidence 1) [D795D7B1], AccurateRip returned [334FDA56]
Copy OK
Track 4
Filename C:\EAC Rips\Eneidi, Parker, Robinson - Cherry Box (1998) [FLAC] {MTE 025}\04 - Barbequed Brahms.wav
Pre-gap length 0:00:04.80
Peak level 98.8 %
Track quality 100.0 %
Test CRC 4EC05D59
Copy CRC 4EC05D59
Cannot be verified as accurate (confidence 1) [1F548E3A], AccurateRip returned [7CADA8F3]
Copy OK
Track 5
Filename C:\EAC Rips\Eneidi, Parker, Robinson - Cherry Box (1998) [FLAC] {MTE 025}\05 - One More Thing.wav
Pre-gap length 0:00:05.80
Peak level 98.8 %
Track quality 100.0 %
Test CRC CAEF1D27
Copy CRC CAEF1D27
Cannot be verified as accurate (confidence 1) [176C837A], AccurateRip returned [BC38305B]
Copy OK
Track 6
Filename C:\EAC Rips\Eneidi, Parker, Robinson - Cherry Box (1998) [FLAC] {MTE 025}\06 - Spank.wav
Pre-gap length 0:00:04.80
Peak level 98.8 %
Track quality 100.0 %
Test CRC C32B49BF
Copy CRC C32B49BF
Cannot be verified as accurate (confidence 1) [765BA992], AccurateRip returned [5F2B839E]
Copy OK
No tracks could be verified as accurate
You may have a different pressing from the one(s) in the database
No errors occurred
End of status report
 
.cue
REM GENRE Jazz
REM DATE 1998
REM DISCID 51105806
REM COMMENT "ExactAudioCopy v0.99pb4"
PERFORMER "Marco Eneidi, William Parker, Donald Robinson"
TITLE "Cherry Box"
FILE "01 - Cherry Box.wav" WAVE
TRACK 01 AUDIO
TITLE "Cherry Box"
PERFORMER "Marco Eneidi, William Parker, Donald Robinson"
FLAGS DCP
INDEX 01 00:00:00
TRACK 02 AUDIO
TITLE "Slashing The Bird"
PERFORMER "Marco Eneidi, William Parker, Donald Robinson"
FLAGS DCP
INDEX 00 04:11:62
FILE "02 - Slashing The Bird.wav" WAVE
INDEX 01 00:00:00
TRACK 03 AUDIO
TITLE "Forget It"
PERFORMER "Marco Eneidi, William Parker, Donald Robinson"
FLAGS DCP
INDEX 00 13:50:43
FILE "03 - Forget It.wav" WAVE
INDEX 01 00:00:00
TRACK 04 AUDIO
TITLE "Barbequed Brahms"
PERFORMER "Marco Eneidi, William Parker, Donald Robinson"
FLAGS DCP
INDEX 00 13:56:70
FILE "04 - Barbequed Brahms.wav" WAVE
INDEX 01 00:00:00
TRACK 05 AUDIO
TITLE "One More Thing"
PERFORMER "Marco Eneidi, William Parker, Donald Robinson"
FLAGS DCP
INDEX 00 19:04:51
FILE "05 - One More Thing.wav" WAVE
INDEX 01 00:00:00
TRACK 06 AUDIO
TITLE "Spank"
PERFORMER "Marco Eneidi, William Parker, Donald Robinson"
FLAGS DCP
INDEX 00 12:34:12
FILE "06 - Spank.wav" WAVE
INDEX 01 00:00:00
 
.accurip
[CUETools log; Date: 25/03/14 02:47:42; Version: 2.1.4]
[CTDB TOCID: cZyQXqYNpniB8JPpq5.WwY4eLRE-] found.
Track | CTDB Status
1 | (1/1) Accurately ripped
2 | (1/1) Accurately ripped
3 | (1/1) Accurately ripped
4 | (1/1) Accurately ripped
5 | (1/1) Accurately ripped
6 | (1/1) Accurately ripped
[AccurateRip ID: 001077de-005ab9cd-51105806] found.
Track [ CRC | V2 ] Status
01 [376bd5d3|4a7fcc27] (2+0/2) Accurately ripped
02 [cee6c096|f04b4d0b] (2+0/2) Accurately ripped
03 [d795d7b1|63f8e687] (2+0/2) Accurately ripped
04 [1f548e3a|c66316fd] (2+0/2) Accurately ripped
05 [176c837a|5e96ca41] (2+0/2) Accurately ripped
06 [765ba992|5061aedf] (2+0/2) Accurately ripped
Track Peak [ CRC32 ] [W/O NULL] [ LOG ]
-- 98.8 [CAE8404A] [51B1E838]
01 98.8 [753608D3] [3C45F814] CRC32
02 98.8 [E30731C9] [69C1A4C4] CRC32
03 98.8 [7B0CBCA7] [24EC9037] CRC32
04 98.8 [4EC05D59] [9A844A26] CRC32
05 98.8 [CAEF1D27] [4D7723A4] CRC32
06 98.8 [C32B49BF] [ADCE1948] CRC32

другие релизы
По всем вопросам пишите личное сообщение пользователю M0p94ok.
00:37
190
Нет комментариев. Ваш будет первым!