Вы используете незарегистрированную версию компонента "Вкладки"!

Поиск

(free jazz) [CD] John Blum, Sunny Murray, William Parker - In the Shade of Sun 2009, FLAC (tracks+.cue), lossless

(free jazz) [CD] John Blum, Sunny Murray, William Parker - In the Shade of Sun 2009, FLAC (tracks+.cue), lossless
Треклист:


John Blum, Sunny Murray, William Parker
In the Shade of Sun 2009
Жанр:free jazz
Год выпуска: 2009
Издатель (лейбл): Ecstatic Peace! / E#5d
Формат: FLAC (tracks+.cue)
Битрейт аудио: lossless
Продолжительность 53`48
Источник: what.cd, 6060842

tracks

1 In The Shade Of Sun (Part 1) 14:33
2 First And Last 11:58
3 Misanthrope's Dream 5:34
4 Out Of This Nettle 6:07
5 Transmigration 8:05
6 In The Shade Of Sun (Part 2) 7:22


 
.log
X Lossless Decoder version 20130602 (143.2)
XLD extraction logfile from 2013-06-06 00:24:33 +0400
John Blum, Sunny Murray,William Parker / In the Shade of Sun
Used drive : HL-DT-ST DVDRW GX30N (revision RP09)
Media type : Pressed CD
Ripper mode : XLD Secure Ripper
Disable audio cache : OK for the drive with a cache less than 1375KiB
Make use of C2 pointers : NO
Read offset correction : 6
Max retry count : 100
Gap status : Analyzed, Appended (except HTOA)
TOC of the extracted CD
Track | Start | Length | Start sector | End sector
---------------------------------------------------------
1 | 00:00:00 | 14:34:55 | 0 | 65604
2 | 14:34:55 | 12:00:27 | 65605 | 119631
3 | 26:35:07 | 05:35:34 | 119632 | 144790
4 | 32:10:41 | 06:08:45 | 144791 | 172435
5 | 38:19:11 | 08:07:19 | 172436 | 208979
6 | 46:26:30 | 07:21:39 | 208980 | 242093
AccurateRip Summary
Disc not found in AccurateRip DB.
All Tracks
Album gain : -6.76 dB
Peak : 0.999237
Statistics
Read error : 0
Jitter error (maybe fixed) : 0
Retry sector count : 0
Damaged sector count : 0
Track 01
Filename : /Users/anch/Music/FLAC/John Blum, Sunny Murray,William Parker - 2009 - In the Shade of Sun [MP3 320]/01 - In the Shade of Sun (Part 1).mp3
/Users/anch/Music/FLAC/John Blum, Sunny Murray,William Parker - 2009 - In the Shade of Sun [MP3 V0]/01 - In the Shade of Sun (Part 1).mp3
/Users/anch/Music/FLAC/John Blum, Sunny Murray,William Parker - 2009 - In the Shade of Sun [FLAC]/01 - In the Shade of Sun (Part 1).flac
Pre-gap length : 00:02:00
Track gain : -5.66 dB
Peak : 0.999146
CRC32 hash (test run) : C72CCAD8
CRC32 hash : C72CCAD8
CRC32 hash (skip zero) : C54553E2
AccurateRip v1 signature : FCB414D2
AccurateRip v2 signature : 0AE5178E
->Track not present in AccurateRip database.
Statistics
Read error : 0
Jitter error (maybe fixed) : 0
Retry sector count : 0
Damaged sector count : 0
Track 02
Filename : /Users/anch/Music/FLAC/John Blum, Sunny Murray,William Parker - 2009 - In the Shade of Sun [MP3 320]/02 - First and Last.mp3
/Users/anch/Music/FLAC/John Blum, Sunny Murray,William Parker - 2009 - In the Shade of Sun [MP3 V0]/02 - First and Last.mp3
/Users/anch/Music/FLAC/John Blum, Sunny Murray,William Parker - 2009 - In the Shade of Sun [FLAC]/02 - First and Last.flac
Pre-gap length : 00:02:00
Track gain : -5.58 dB
Peak : 0.793793
CRC32 hash (test run) : 8E6E7431
CRC32 hash : 8E6E7431
CRC32 hash (skip zero) : 42AEFE14
AccurateRip v1 signature : 25534D00
AccurateRip v2 signature : 6F50C4EE
->Track not present in AccurateRip database.
Statistics
Read error : 0
Jitter error (maybe fixed) : 0
Retry sector count : 0
Damaged sector count : 0
Track 03
Filename : /Users/anch/Music/FLAC/John Blum, Sunny Murray,William Parker - 2009 - In the Shade of Sun [MP3 320]/03 - Misanthrope's Dream.mp3
/Users/anch/Music/FLAC/John Blum, Sunny Murray,William Parker - 2009 - In the Shade of Sun [MP3 V0]/03 - Misanthrope's Dream.mp3
/Users/anch/Music/FLAC/John Blum, Sunny Murray,William Parker - 2009 - In the Shade of Sun [FLAC]/03 - Misanthrope's Dream.flac
Pre-gap length : 00:02:00
Track gain : -6.36 dB
Peak : 0.999084
CRC32 hash (test run) : 552A20AD
CRC32 hash : 552A20AD
CRC32 hash (skip zero) : 6DB49B21
AccurateRip v1 signature : 3308185B
AccurateRip v2 signature : 6FF3303F
->Track not present in AccurateRip database.
Statistics
Read error : 0
Jitter error (maybe fixed) : 0
Retry sector count : 0
Damaged sector count : 0
Track 04
Filename : /Users/anch/Music/FLAC/John Blum, Sunny Murray,William Parker - 2009 - In the Shade of Sun [MP3 320]/04 - Out of this Nettle.mp3
/Users/anch/Music/FLAC/John Blum, Sunny Murray,William Parker - 2009 - In the Shade of Sun [MP3 V0]/04 - Out of this Nettle.mp3
/Users/anch/Music/FLAC/John Blum, Sunny Murray,William Parker - 2009 - In the Shade of Sun [FLAC]/04 - Out of this Nettle.flac
Pre-gap length : 00:02:00
Track gain : -7.65 dB
Peak : 0.999237
CRC32 hash (test run) : CD7DFB4A
CRC32 hash : CD7DFB4A
CRC32 hash (skip zero) : CF8088EB
AccurateRip v1 signature : 217A168C
AccurateRip v2 signature : 55CFF2D9
->Track not present in AccurateRip database.
Statistics
Read error : 0
Jitter error (maybe fixed) : 0
Retry sector count : 0
Damaged sector count : 0
Track 05
Filename : /Users/anch/Music/FLAC/John Blum, Sunny Murray,William Parker - 2009 - In the Shade of Sun [MP3 320]/05 - Transmigration.mp3
/Users/anch/Music/FLAC/John Blum, Sunny Murray,William Parker - 2009 - In the Shade of Sun [MP3 V0]/05 - Transmigration.mp3
/Users/anch/Music/FLAC/John Blum, Sunny Murray,William Parker - 2009 - In the Shade of Sun [FLAC]/05 - Transmigration.flac
Pre-gap length : 00:02:00
Track gain : -7.42 dB
Peak : 0.999176
CRC32 hash (test run) : B0CF28D7
CRC32 hash : B0CF28D7
CRC32 hash (skip zero) : 3E77C8A8
AccurateRip v1 signature : 3AA61064
AccurateRip v2 signature : 04D6DA0E
->Track not present in AccurateRip database.
Statistics
Read error : 0
Jitter error (maybe fixed) : 0
Retry sector count : 0
Damaged sector count : 0
Track 06
Filename : /Users/anch/Music/FLAC/John Blum, Sunny Murray,William Parker - 2009 - In the Shade of Sun [MP3 320]/06 - In the Shade of Sun (Part 2).mp3
/Users/anch/Music/FLAC/John Blum, Sunny Murray,William Parker - 2009 - In the Shade of Sun [MP3 V0]/06 - In the Shade of Sun (Part 2).mp3
/Users/anch/Music/FLAC/John Blum, Sunny Murray,William Parker - 2009 - In the Shade of Sun [FLAC]/06 - In the Shade of Sun (Part 2).flac
Pre-gap length : 00:02:00
Track gain : -7.80 dB
Peak : 0.999115
CRC32 hash (test run) : 0D44273A
CRC32 hash : 0D44273A
CRC32 hash (skip zero) : 997535A7
AccurateRip v1 signature : 97E2ACA8
AccurateRip v2 signature : 05288BCB
->Track not present in AccurateRip database.
Statistics
Read error : 0
Jitter error (maybe fixed) : 0
Retry sector count : 0
Damaged sector count : 0
No errors occurred
End of status report
 
.cue
TITLE "In the Shade of Sun"
PERFORMER "John Blum, Sunny Murray, William Parker"
REM GENRE "Free Jazz"
REM DATE "2009"
REM DISCNUMBER 1
REM TOTALDISCS 1
REM DISCID 5B0C9B06
REM REPLAYGAIN_ALBUM_GAIN -6.76 dB
REM REPLAYGAIN_ALBUM_PEAK 0.999237
FILE "01 - In the Shade of Sun (Part 1).flac" WAVE
TRACK 01 AUDIO
TITLE "In the Shade of Sun (Part 1)"
PERFORMER " John Blum, Sunny Murray, William Parker"
SONGWRITER " John Blum, Sunny Murray, William Parker"
REM REPLAYGAIN_TRACK_GAIN -5.66 dB
REM REPLAYGAIN_TRACK_PEAK 0.999146
INDEX 01 00:00:00
TRACK 02 AUDIO
TITLE "First and Last"
PERFORMER " John Blum, Sunny Murray, William Parker"
SONGWRITER " John Blum, Sunny Murray, William Parker"
REM REPLAYGAIN_TRACK_GAIN -5.58 dB
REM REPLAYGAIN_TRACK_PEAK 0.793793
INDEX 00 14:32:55
FILE "02 - First and Last.flac" WAVE
INDEX 01 00:00:00
TRACK 03 AUDIO
TITLE "Misanthrope's Dream"
PERFORMER " John Blum, Sunny Murray, William Parker"
SONGWRITER " John Blum, Sunny Murray, William Parker"
REM REPLAYGAIN_TRACK_GAIN -6.36 dB
REM REPLAYGAIN_TRACK_PEAK 0.999084
INDEX 00 11:58:27
FILE "03 - Misanthrope's Dream.flac" WAVE
INDEX 01 00:00:00
TRACK 04 AUDIO
TITLE "Out of this Nettle"
PERFORMER " John Blum, Sunny Murray, William Parker"
SONGWRITER " John Blum, Sunny Murray, William Parker"
REM REPLAYGAIN_TRACK_GAIN -7.65 dB
REM REPLAYGAIN_TRACK_PEAK 0.999237
INDEX 00 05:33:34
FILE "04 - Out of this Nettle.flac" WAVE
INDEX 01 00:00:00
TRACK 05 AUDIO
TITLE "Transmigration"
PERFORMER " John Blum, Sunny Murray, William Parker"
SONGWRITER " John Blum, Sunny Murray, William Parker"
REM REPLAYGAIN_TRACK_GAIN -7.42 dB
REM REPLAYGAIN_TRACK_PEAK 0.999176
INDEX 00 06:06:45
FILE "05 - Transmigration.flac" WAVE
INDEX 01 00:00:00
TRACK 06 AUDIO
TITLE "In the Shade of Sun (Part 2)"
PERFORMER " John Blum, Sunny Murray, William Parker"
SONGWRITER " John Blum, Sunny Murray, William Parker"
REM REPLAYGAIN_TRACK_GAIN -7.80 dB
REM REPLAYGAIN_TRACK_PEAK 0.999115
INDEX 00 08:05:19
FILE "06 - In the Shade of Sun (Part 2).flac" WAVE
INDEX 01 00:00:00
 
.accurip
[CUETools log; Date: 25/03/14 03:06:23; Version: 2.1.4]
[CTDB TOCID: sFfE6pdlvjFodhufCcQOQKgN1WU-] disk not present in database.
[AccurateRip ID: 000e8cc2-004a7675-5b0c9b06] found.
Track [ CRC | V2 ] Status
01 [fcb414d2|0ae5178e] (1+0/1) Accurately ripped
02 [25534d00|6f50c4ee] (1+0/1) Accurately ripped
03 [3308185b|6ff3303f] (1+0/1) Accurately ripped
04 [217a168c|55cff2d9] (1+0/1) Accurately ripped
05 [3aa61064|04d6da0e] (1+0/1) Accurately ripped
06 [97e2aca8|05288bcb] (1+0/1) Accurately ripped
Track Peak [ CRC32 ] [W/O NULL]
-- 99.9 [FC92D908] [CF5D0F5A]
01 99.9 [C72CCAD8] [C54553E2]
02 79.3 [8E6E7431] [42AEFE14]
03 99.9 [552A20AD] [6DB49B21]
04 99.9 [CD7DFB4A] [CF8088EB]
05 99.9 [B0CF28D7] [3E77C8A8]
06 99.9 [0D44273A] [997535A7]

другие релизы
По всем вопросам пишите личное сообщение пользователю M0p94ok.
00:36
176
Нет комментариев. Ваш будет первым!