Вы используете незарегистрированную версию компонента "Вкладки"!

Поиск

(free jazz) [cd] Julius Hemphill - At Dr. King's Table (1997), FLAC (tracks+.cue), lossless

(free jazz) [cd] Julius Hemphill - At Dr. King's Table (1997), FLAC (tracks+.cue), lossless
Треклист:


Julius Hemphill - At Dr. King's Table (1997)

Жанр: free jazz
Год выпуска: 1997
Издатель (лейбл): New World Records / 80524-2
Формат: FLAC (tracks+.cue)
Битрейт аудио: lossless
Продолжительность 56`45
Источник: what.cd, mxp
Andrew White - tenor saxophone
Marty Ehrlich - flute, alto flute, clarinet, bass clarinet, soprano saxophone, alto saxophone
Eugene Ghee
Sam Furnace - soprano saxophone, alto saxophone
Alex Harding - baritone saxophone
Julius Hemphill - flute, soprano saxophone, alto saxophone

tracks
1. Impulse
2. Holy Rocker
3. Void
4. Fixation
5. JiJi Tune
6. What I Know Now
7. Sojourner's Blues: 'Ain't I A Woman?'
8. Another Feeling
9. Bumpkin
10. A Bitter Glory
11. Flair
12. Ink
13. Choo Choo
14. At Dr. King's Table/ Ascension
15. The Children's Song
16. The Children's Song: First Vision


 
.log
X Lossless Decoder version 20130720 (144.0)
XLD extraction logfile from 2014-06-26 00:35:05 -0500
The Julius Hemphill Sextet / At Dr. King's Table
Used drive : MATSHITA DVD-R UJ-8A8 (revision HB14)
Media type : Pressed CD
Ripper mode : XLD Secure Ripper
Disable audio cache : OK for the drive with a cache less than 1375KiB
Make use of C2 pointers : NO
Read offset correction : 102
Max retry count : 20
Gap status : Analyzed, Appended (except HTOA)
TOC of the extracted CD
Track | Start | Length | Start sector | End sector
---------------------------------------------------------
1 | 00:00:00 | 01:16:12 | 0 | 5711
2 | 01:16:12 | 07:08:50 | 5712 | 37861
3 | 08:24:62 | 03:23:02 | 37862 | 53088
4 | 11:47:64 | 02:26:28 | 53089 | 64066
5 | 14:14:17 | 03:37:45 | 64067 | 80386
6 | 17:51:62 | 04:17:10 | 80387 | 99671
7 | 22:08:72 | 04:17:08 | 99672 | 118954
8 | 26:26:05 | 01:54:17 | 118955 | 127521
9 | 28:20:22 | 04:16:58 | 127522 | 146779
10 | 32:37:05 | 03:30:20 | 146780 | 162549
11 | 36:07:25 | 02:38:05 | 162550 | 174404
12 | 38:45:30 | 03:14:70 | 174405 | 189024
13 | 42:00:25 | 04:00:07 | 189025 | 207031
14 | 46:00:32 | 04:25:30 | 207032 | 226936
15 | 50:25:62 | 02:24:25 | 226937 | 237761
16 | 52:50:12 | 03:54:45 | 237762 | 255356
AccurateRip Summary (DiscID: 00215f6a-018fa411-de0d4c10)
Track 01 : OK (v1, confidence 3/3)
Track 02 : OK (v1, confidence 3/3)
Track 03 : OK (v1, confidence 3/3)
Track 04 : OK (v1, confidence 3/3)
Track 05 : OK (v1, confidence 3/3)
Track 06 : OK (v1, confidence 3/3)
Track 07 : OK (v1, confidence 3/3)
Track 08 : OK (v1, confidence 3/3)
Track 09 : OK (v1, confidence 3/3)
Track 10 : OK (v1, confidence 3/3)
Track 11 : OK (v1, confidence 3/3)
Track 12 : OK (v1, confidence 3/3)
Track 13 : OK (v1, confidence 3/3)
Track 14 : OK (v1, confidence 3/3)
Track 15 : OK (v1, confidence 3/3)
Track 16 : OK (v1, confidence 3/3)
->All tracks accurately ripped.
All Tracks
Album gain : -3.17 dB
Peak : 0.894043
Statistics
Read error : 0
Jitter error (maybe fixed) : 0
Retry sector count : 0
Damaged sector count : 0
Track 01
Filename : /Volumes/MyBook/Julius Hemphill - At Dr. King's Table (1997) [FLAC]/01 Impulse.flac
Pre-gap length : 00:02:00
Track gain : -4.44 dB
Peak : 0.894043
CRC32 hash (test run) : C221F732
CRC32 hash : C221F732
CRC32 hash (skip zero) : 7849B4E4
AccurateRip v1 signature : A017B4F8
AccurateRip v2 signature : 159B0396
->Accurately ripped (v1, confidence 3/3)
Statistics
Read error : 0
Jitter error (maybe fixed) : 0
Retry sector count : 0
Damaged sector count : 0
Track 02
Filename : /Volumes/MyBook/Julius Hemphill - At Dr. King's Table (1997) [FLAC]/02 Holy Rockers.flac
Pre-gap length : 00:01:37
Track gain : -3.43 dB
Peak : 0.832214
CRC32 hash (test run) : FCA65703
CRC32 hash : FCA65703
CRC32 hash (skip zero) : 10FB066D
AccurateRip v1 signature : 56F4B7E3
AccurateRip v2 signature : A106E322
->Accurately ripped (v1, confidence 3/3)
Statistics
Read error : 0
Jitter error (maybe fixed) : 0
Retry sector count : 0
Damaged sector count : 0
Track 03
Filename : /Volumes/MyBook/Julius Hemphill - At Dr. King's Table (1997) [FLAC]/03 Void.flac
Pre-gap length : 00:03:42
Track gain : -4.31 dB
Peak : 0.887421
CRC32 hash (test run) : 598A6B04
CRC32 hash : 598A6B04
CRC32 hash (skip zero) : 4627886A
AccurateRip v1 signature : 8AF28A62
AccurateRip v2 signature : D304836A
->Accurately ripped (v1, confidence 3/3)
Statistics
Read error : 0
Jitter error (maybe fixed) : 0
Retry sector count : 0
Damaged sector count : 0
Track 04
Filename : /Volumes/MyBook/Julius Hemphill - At Dr. King's Table (1997) [FLAC]/04 Fixation.flac
Pre-gap length : 00:03:69
Track gain : -3.51 dB
Peak : 0.767395
CRC32 hash (test run) : DBFDAEF7
CRC32 hash : DBFDAEF7
CRC32 hash (skip zero) : 5FFD6222
AccurateRip v1 signature : 82C8D30B
AccurateRip v2 signature : 1828CC1B
->Accurately ripped (v1, confidence 3/3)
Statistics
Read error : 0
Jitter error (maybe fixed) : 0
Retry sector count : 0
Damaged sector count : 0
Track 05
Filename : /Volumes/MyBook/Julius Hemphill - At Dr. King's Table (1997) [FLAC]/05 JiJi Tune.flac
Pre-gap length : 00:03:12
Track gain : -4.82 dB
Peak : 0.851471
CRC32 hash (test run) : BB79440F
CRC32 hash : BB79440F
CRC32 hash (skip zero) : 5CC6104D
AccurateRip v1 signature : 36A18514
AccurateRip v2 signature : 262490C4
->Accurately ripped (v1, confidence 3/3)
Statistics
Read error : 0
Jitter error (maybe fixed) : 0
Retry sector count : 0
Damaged sector count : 0
Track 06
Filename : /Volumes/MyBook/Julius Hemphill - At Dr. King's Table (1997) [FLAC]/06 What I Know Now.flac
Pre-gap length : 00:03:60
Track gain : -0.63 dB
Peak : 0.632416
CRC32 hash (test run) : 95CB7EFF
CRC32 hash : 95CB7EFF
CRC32 hash (skip zero) : 2811E36C
AccurateRip v1 signature : 9329E333
AccurateRip v2 signature : EBA8758F
->Accurately ripped (v1, confidence 3/3)
Statistics
Read error : 0
Jitter error (maybe fixed) : 0
Retry sector count : 0
Damaged sector count : 0
Track 07
Filename : /Volumes/MyBook/Julius Hemphill - At Dr. King's Table (1997) [FLAC]/07 Sojourner's Blues: "Ain't I A Woman?".flac
Pre-gap length : 00:01:50
Track gain : -2.59 dB
Peak : 0.781921
CRC32 hash (test run) : AF1FB9FB
CRC32 hash : AF1FB9FB
CRC32 hash (skip zero) : 5F0A7CFE
AccurateRip v1 signature : D262B389
AccurateRip v2 signature : 088CDDD8
->Accurately ripped (v1, confidence 3/3)
Statistics
Read error : 0
Jitter error (maybe fixed) : 0
Retry sector count : 0
Damaged sector count : 0
Track 08
Filename : /Volumes/MyBook/Julius Hemphill - At Dr. King's Table (1997) [FLAC]/08 Another Feeling.flac
Pre-gap length : 00:02:50
Track gain : -1.94 dB
Peak : 0.665466
CRC32 hash (test run) : F9740F10
CRC32 hash : F9740F10
CRC32 hash (skip zero) : 274034B0
AccurateRip v1 signature : D4BF384F
AccurateRip v2 signature : 89947263
->Accurately ripped (v1, confidence 3/3)
Statistics
Read error : 0
Jitter error (maybe fixed) : 0
Retry sector count : 0
Damaged sector count : 0
Track 09
Filename : /Volumes/MyBook/Julius Hemphill - At Dr. King's Table (1997) [FLAC]/09 Bumpkin.flac
Pre-gap length : 00:04:00
Track gain : -3.23 dB
Peak : 0.835571
CRC32 hash (test run) : BA86F6D6
CRC32 hash : BA86F6D6
CRC32 hash (skip zero) : 2FAFFAA8
AccurateRip v1 signature : 510F2DD2
AccurateRip v2 signature : 6453109C
->Accurately ripped (v1, confidence 3/3)
Statistics
Read error : 0
Jitter error (maybe fixed) : 0
Retry sector count : 0
Damaged sector count : 0
Track 10
Filename : /Volumes/MyBook/Julius Hemphill - At Dr. King's Table (1997) [FLAC]/10 A Bitter Glory.flac
Pre-gap length : 00:02:60
Track gain : -2.66 dB
Peak : 0.788788
CRC32 hash (test run) : 53A8F932
CRC32 hash : 53A8F932
CRC32 hash (skip zero) : A4505AE1
AccurateRip v1 signature : B25950C4
AccurateRip v2 signature : 659ED1CD
->Accurately ripped (v1, confidence 3/3)
Statistics
Read error : 0
Jitter error (maybe fixed) : 0
Retry sector count : 0
Damaged sector count : 0
Track 11
Filename : /Volumes/MyBook/Julius Hemphill - At Dr. King's Table (1997) [FLAC]/11 Flair.flac
Pre-gap length : 00:02:58
Track gain : -1.85 dB
Peak : 0.650299
CRC32 hash (test run) : B3DEE36A
CRC32 hash : B3DEE36A
CRC32 hash (skip zero) : E13668D9
AccurateRip v1 signature : E8B0BBED
AccurateRip v2 signature : 61FE80D9
->Accurately ripped (v1, confidence 3/3)
Statistics
Read error : 0
Jitter error (maybe fixed) : 0
Retry sector count : 0
Damaged sector count : 0
Track 12
Filename : /Volumes/MyBook/Julius Hemphill - At Dr. King's Table (1997) [FLAC]/12 Ink.flac
Pre-gap length : 00:02:25
Track gain : -3.12 dB
Peak : 0.822937
CRC32 hash (test run) : DD7643AE
CRC32 hash : DD7643AE
CRC32 hash (skip zero) : 9E7A3AF5
AccurateRip v1 signature : 8E11E39C
AccurateRip v2 signature : BFC459EE
->Accurately ripped (v1, confidence 3/3)
Statistics
Read error : 0
Jitter error (maybe fixed) : 0
Retry sector count : 0
Damaged sector count : 0
Track 13
Filename : /Volumes/MyBook/Julius Hemphill - At Dr. King's Table (1997) [FLAC]/13 Choo Choo.flac
Pre-gap length : 00:02:60
Track gain : -2.14 dB
Peak : 0.757141
CRC32 hash (test run) : E37F3700
CRC32 hash : E37F3700
CRC32 hash (skip zero) : E45AE01B
AccurateRip v1 signature : 0399648B
AccurateRip v2 signature : 06FAEE18
->Accurately ripped (v1, confidence 3/3)
Statistics
Read error : 0
Jitter error (maybe fixed) : 0
Retry sector count : 0
Damaged sector count : 0
Track 14
Filename : /Volumes/MyBook/Julius Hemphill - At Dr. King's Table (1997) [FLAC]/14 At Dr. King's Table/Ascension.flac
Pre-gap length : 00:03:55
Track gain : -2.54 dB
Peak : 0.875519
CRC32 hash (test run) : B5319E62
CRC32 hash : B5319E62
CRC32 hash (skip zero) : 2FD43941
AccurateRip v1 signature : A6D5EBAC
AccurateRip v2 signature : 00203978
->Accurately ripped (v1, confidence 3/3)
Statistics
Read error : 0
Jitter error (maybe fixed) : 0
Retry sector count : 0
Damaged sector count : 0
Track 15
Filename : /Volumes/MyBook/Julius Hemphill - At Dr. King's Table (1997) [FLAC]/15 The Children's Song.flac
Pre-gap length : 00:01:40
Track gain : -3.16 dB
Peak : 0.719849
CRC32 hash (test run) : 64D7C503
CRC32 hash : 64D7C503
CRC32 hash (skip zero) : 90206942
AccurateRip v1 signature : A61144CC
AccurateRip v2 signature : E420A0D0
->Accurately ripped (v1, confidence 3/3)
Statistics
Read error : 0
Jitter error (maybe fixed) : 0
Retry sector count : 0
Damaged sector count : 0
Track 16
Filename : /Volumes/MyBook/Julius Hemphill - At Dr. King's Table (1997) [FLAC]/16 The Children's Song: First Vision.flac
Pre-gap length : 00:06:17
Track gain : -0.48 dB
Peak : 0.684082
CRC32 hash (test run) : 42469F28
CRC32 hash : 42469F28
CRC32 hash (skip zero) : E6913BDE
AccurateRip v1 signature : A1BCBEC6
AccurateRip v2 signature : C3A83A13
->Accurately ripped (v1, confidence 3/3)
Statistics
Read error : 0
Jitter error (maybe fixed) : 0
Retry sector count : 0
Damaged sector count : 0
No errors occurred
End of status report
-----BEGIN XLD SIGNATURE-----
67M0cDTHT1XAusfa2K0q_aNGQjd1lST37b5Oahv8VQ4cjD4BCWjYLZlPV3bFSsfjz38kUC6n5SU1wQeS9p8Q7YoOdDUJ8w2Zen64CO4
-----END XLD SIGNATURE-----
 
.cue
TITLE "At Dr. King's Table"
PERFORMER "The Julius Hemphill Sextet"
REM GENRE "Jazz"
REM DATE "1997"
REM DISCID DE0D4C10
REM REPLAYGAIN_ALBUM_GAIN -3.17 dB
REM REPLAYGAIN_ALBUM_PEAK 0.894043
FILE "01 Impulse.flac" WAVE
TRACK 01 AUDIO
TITLE "Impulse"
PERFORMER "The Julius Hemphill Sextet"
SONGWRITER "Julius Hemphill"
REM REPLAYGAIN_TRACK_GAIN -4.44 dB
REM REPLAYGAIN_TRACK_PEAK 0.894043
INDEX 01 00:00:00
TRACK 02 AUDIO
TITLE "Holy Rockers"
PERFORMER "The Julius Hemphill Sextet"
SONGWRITER "Julius Hemphill"
REM REPLAYGAIN_TRACK_GAIN -3.43 dB
REM REPLAYGAIN_TRACK_PEAK 0.832214
INDEX 00 01:14:50
FILE "02 Holy Rockers.flac" WAVE
INDEX 01 00:00:00
TRACK 03 AUDIO
TITLE "Void"
PERFORMER "The Julius Hemphill Sextet"
SONGWRITER "Julius Hemphill"
REM REPLAYGAIN_TRACK_GAIN -4.31 dB
REM REPLAYGAIN_TRACK_PEAK 0.887421
INDEX 00 07:05:08
FILE "03 Void.flac" WAVE
INDEX 01 00:00:00
TRACK 04 AUDIO
TITLE "Fixation"
PERFORMER "The Julius Hemphill Sextet"
SONGWRITER "Julius Hemphill"
REM REPLAYGAIN_TRACK_GAIN -3.51 dB
REM REPLAYGAIN_TRACK_PEAK 0.767395
INDEX 00 03:19:08
FILE "04 Fixation.flac" WAVE
INDEX 01 00:00:00
TRACK 05 AUDIO
TITLE "JiJi Tune"
PERFORMER "The Julius Hemphill Sextet"
SONGWRITER "Julius Hemphill"
REM REPLAYGAIN_TRACK_GAIN -4.82 dB
REM REPLAYGAIN_TRACK_PEAK 0.851471
INDEX 00 02:23:16
FILE "05 JiJi Tune.flac" WAVE
INDEX 01 00:00:00
TRACK 06 AUDIO
TITLE "What I Know Now"
PERFORMER "The Julius Hemphill Sextet"
SONGWRITER "Julius Hemphill"
REM REPLAYGAIN_TRACK_GAIN -0.63 dB
REM REPLAYGAIN_TRACK_PEAK 0.632416
INDEX 00 03:33:60
FILE "06 What I Know Now.flac" WAVE
INDEX 01 00:00:00
TRACK 07 AUDIO
TITLE "Sojourner's Blues: "Ain't I A Woman?""
PERFORMER "The Julius Hemphill Sextet"
SONGWRITER "Julius Hemphill"
REM REPLAYGAIN_TRACK_GAIN -2.59 dB
REM REPLAYGAIN_TRACK_PEAK 0.781921
INDEX 00 04:15:35
FILE "07 Sojourner's Blues: "Ain't I A Woman?".flac" WAVE
INDEX 01 00:00:00
TRACK 08 AUDIO
TITLE "Another Feeling"
PERFORMER "The Julius Hemphill Sextet"
SONGWRITER "Julius Hemphill"
REM REPLAYGAIN_TRACK_GAIN -1.94 dB
REM REPLAYGAIN_TRACK_PEAK 0.665466
INDEX 00 04:14:33
FILE "08 Another Feeling.flac" WAVE
INDEX 01 00:00:00
TRACK 09 AUDIO
TITLE "Bumpkin"
PERFORMER "The Julius Hemphill Sextet"
SONGWRITER "Julius Hemphill"
REM REPLAYGAIN_TRACK_GAIN -3.23 dB
REM REPLAYGAIN_TRACK_PEAK 0.835571
INDEX 00 01:50:17
FILE "09 Bumpkin.flac" WAVE
INDEX 01 00:00:00
TRACK 10 AUDIO
TITLE "A Bitter Glory"
PERFORMER "The Julius Hemphill Sextet"
SONGWRITER "Julius Hemphill"
REM REPLAYGAIN_TRACK_GAIN -2.66 dB
REM REPLAYGAIN_TRACK_PEAK 0.788788
INDEX 00 04:13:73
FILE "10 A Bitter Glory.flac" WAVE
INDEX 01 00:00:00
TRACK 11 AUDIO
TITLE "Flair"
PERFORMER "The Julius Hemphill Sextet"
SONGWRITER "Julius Hemphill"
REM REPLAYGAIN_TRACK_GAIN -1.85 dB
REM REPLAYGAIN_TRACK_PEAK 0.650299
INDEX 00 03:27:37
FILE "11 Flair.flac" WAVE
INDEX 01 00:00:00
TRACK 12 AUDIO
TITLE "Ink"
PERFORMER "The Julius Hemphill Sextet"
SONGWRITER "Julius Hemphill"
REM REPLAYGAIN_TRACK_GAIN -3.12 dB
REM REPLAYGAIN_TRACK_PEAK 0.822937
INDEX 00 02:35:55
FILE "12 Ink.flac" WAVE
INDEX 01 00:00:00
TRACK 13 AUDIO
TITLE "Choo Choo"
PERFORMER "The Julius Hemphill Sextet"
SONGWRITER "Julius Hemphill"
REM REPLAYGAIN_TRACK_GAIN -2.14 dB
REM REPLAYGAIN_TRACK_PEAK 0.757141
INDEX 00 03:12:10
FILE "13 Choo Choo.flac" WAVE
INDEX 01 00:00:00
TRACK 14 AUDIO
TITLE "At Dr. King's Table/Ascension"
PERFORMER "The Julius Hemphill Sextet"
SONGWRITER "Julius Hemphill"
REM REPLAYGAIN_TRACK_GAIN -2.54 dB
REM REPLAYGAIN_TRACK_PEAK 0.875519
INDEX 00 03:56:27
FILE "14 At Dr. King's Table_Ascension.flac" WAVE
INDEX 01 00:00:00
TRACK 15 AUDIO
TITLE "The Children's Song"
PERFORMER "The Julius Hemphill Sextet"
SONGWRITER "Julius Hemphill"
REM REPLAYGAIN_TRACK_GAIN -3.16 dB
REM REPLAYGAIN_TRACK_PEAK 0.719849
INDEX 00 04:23:65
FILE "15 The Children's Song.flac" WAVE
INDEX 01 00:00:00
TRACK 16 AUDIO
TITLE "The Children's Song: First Vision"
PERFORMER "The Julius Hemphill Sextet"
SONGWRITER "Julius Hemphill"
REM REPLAYGAIN_TRACK_GAIN -0.48 dB
REM REPLAYGAIN_TRACK_PEAK 0.684082
INDEX 00 02:18:08
FILE "16 The Children's Song: First Vision.flac" WAVE
INDEX 01 00:00:00
 
.accurip
[CUETools log; Date: 26/06/14 21:06:57; Version: 2.1.4]
[AccurateRip ID: 00215f6a-018fa411-de0d4c10] found.
Track [ CRC | V2 ] Status
01 [a017b4f8|159b0396] (3+0/3) Accurately ripped
02 [56f4b7e3|a106e322] (3+0/3) Accurately ripped
03 [8af28a62|d304836a] (3+0/3) Accurately ripped
04 [82c8d30b|1828cc1b] (3+0/3) Accurately ripped
05 [36a18514|262490c4] (3+0/3) Accurately ripped
06 [9329e333|eba8758f] (3+0/3) Accurately ripped
07 [d262b389|088cddd8] (3+0/3) Accurately ripped
08 [d4bf384f|89947263] (3+0/3) Accurately ripped
09 [510f2dd2|6453109c] (3+0/3) Accurately ripped
10 [b25950c4|659ed1cd] (3+0/3) Accurately ripped
11 [e8b0bbed|61fe80d9] (3+0/3) Accurately ripped
12 [8e11e39c|bfc459ee] (3+0/3) Accurately ripped
13 [0399648b|06faee18] (3+0/3) Accurately ripped
14 [a6d5ebac|00203978] (3+0/3) Accurately ripped
15 [a61144cc|e420a0d0] (3+0/3) Accurately ripped
16 [a1bcbec6|c3a83a13] (3+0/3) Accurately ripped
Track Peak [ CRC32 ] [W/O NULL]
-- 89.4 [430FC298] [9C9258E9]
01 89.4 [C221F732] [7849B4E4]
02 83.2 [FCA65703] [10FB066D]
03 88.7 [598A6B04] [4627886A]
04 76.7 [DBFDAEF7] [5FFD6222]
05 85.1 [BB79440F] [5CC6104D]
06 63.2 [95CB7EFF] [2811E36C]
07 78.1 [AF1FB9FB] [5F0A7CFE]
08 66.5 [F9740F10] [274034B0]
09 83.5 [BA86F6D6] [2FAFFAA8]
10 78.8 [53A8F932] [A4505AE1]
11 65.0 [B3DEE36A] [E13668D9]
12 82.2 [DD7643AE] [9E7A3AF5]
13 75.7 [E37F3700] [E45AE01B]
14 87.5 [B5319E62] [2FD43941]
15 71.9 [64D7C503] [90206942]
16 68.4 [42469F28] [E6913BDE]

другие релизы
По всем вопросам пишите личное сообщение пользователю M0p94ok.
03:05
309
Нет комментариев. Ваш будет первым!