Вы используете незарегистрированную версию компонента "Вкладки"!

Поиск

(Avant-Garde, Free Improvisation, NotTwo Records) [CD] Herb Robertson / Dave Kaczorowski / Adrian Valosin - Party Enders - 2012, FLAC (tracks+.cue), lossless

(Avant-Garde, Free Improvisation, NotTwo Records) [CD] Herb Robertson / Dave Kaczorowski / Adrian Valosin - Party Enders - 2012, FLAC (tracks+.cue), lossless
Треклист:
Herb Robertson / Dave Kaczorowski / Adrian Valosin – Party Enders
Жанр: Avant-Garde, Free Improvisation, NotTwo Records
Носитель: CD
Страна-производитель диска: Poland
Год издания: 2012
Издатель (лейбл): NotTwo Records
Номер по каталогу: MW 867-2
Аудиокодек: FLAC (*.flac)
Тип рипа: tracks+.cue
Битрейт аудио: lossless
Продолжительность: 1:13:46
Источник (релизер): я
Наличие сканов в содержимом раздачи: да
Треклист:
1. Elastic Dreams 40:44
2. Party Ender 22:26
3. Outer Boroughs 10:37
All compositions Robertson / Kaczorowski / Valosin.
Recorded live @ Wind-Up Space Baltimore, MD, USA, April 29, 2010.
Herb Robertson – Trumpet, Cornet, Flugelhorn, English Hunting Horn, Penny-Whistles, Romanian Reed Flute, Mutes, Electronic Mutes, Bells, Castanets, Vocal
Dave Kaczorowski – Double Bass
Adrian Valosin – Drums, Bells, Castanets
 
Лог создания рипа
Exact Audio Copy V1.0 beta 3 from 29. August 2011
EAC extraction logfile from 14. June 2014, 13:59
Herb Robertson / Dave Kaczorowski / Adrian Valosin / Party Enders
Used drive : SlimtypeeNAU508 5 Adapter: 1 ID: 0
Read mode : Secure
Utilize accurate stream : Yes
Defeat audio cache : Yes
Make use of C2 pointers : No
Read offset correction : 6
Overread into Lead-In and Lead-Out : No
Fill up missing offset samples with silence : Yes
Delete leading and trailing silent blocks : No
Null samples used in CRC calculations : Yes
Used interface : Native Win32 interface for Win NT & 2000
Gap handling : Appended to previous track
Used output format : User Defined Encoder
Selected bitrate : 768 kBit/s
Quality : High
Add ID3 tag : No
Command line compressor : C:\Program Files (x86)\Exact Audio Copy\Flac\flac.exe
Additional command line options : -8 -V -T "ARTIST=%artist%" -T "TITLE=%title%" -T "ALBUM=%albumtitle%" -T "DATE=%year%" -T "TRACKNUMBER=%tracknr%" -T "TOTALTRACKS=%numtracks%" -T "GENRE=%genre%" -T "ALBUMARTIST=%albumartist%" -T "ALBUM ARTIST=%albumartist%" -T "COMMENT=EAC Secure Mode, Test & Copy, AccurateRip, FLAC -8" %source%
TOC of the extracted CD
Track | Start | Length | Start sector | End sector
---------------------------------------------------------
1 | 0:00.00 | 40:44.29 | 0 | 183328
2 | 40:44.29 | 22:25.39 | 183329 | 284242
3 | 63:09.68 | 10:36.41 | 284243 | 331983
Track 1
Filename C:\EAC rips\01 - Elastic Dreams.wav
Pre-gap length 0:00:02.00
Peak level 99.9 %
Extraction speed 3.3 X
Track quality 100.0 %
Test CRC 2A9F37AB
Copy CRC 2A9F37AB
Track not present in AccurateRip database
Copy OK
Track 2
Filename C:\EAC rips\02 - Party Ender.wav
Pre-gap length 0:00:05.00
Peak level 99.6 %
Extraction speed 4.7 X
Track quality 100.0 %
Test CRC 61170214
Copy CRC 61170214
Track not present in AccurateRip database
Copy OK
Track 3
Filename C:\EAC rips\03 - Outer Boroughs.wav
Pre-gap length 0:00:03.00
Peak level 99.9 %
Extraction speed 5.1 X
Track quality 100.0 %
Test CRC 4BC44F3E
Copy CRC 4BC44F3E
Track not present in AccurateRip database
Copy OK
None of the tracks are present in the AccurateRip database
No errors occurred
End of status report
---- CUETools DB Plugin V2.1.4
[CTDB TOCID: Lv6O2HUulb5sGssEjy9HAM2_Aio-] disk not present in database
Submit result: Lv6O2HUulb5sGssEjy9HAM2_Aio- has been uploaded
==== Log checksum BC15CD7DBC4A36F246C64743333CA9C4B40166C097795999B6692A1E3FCE46B9 ====
 
Содержание индексной карты (.CUE)
REM GENRE "NotTwo MW 867-2"
REM DATE 2012
REM DISCID 26114A03
REM COMMENT "ExactAudioCopy v1.0b3"
PERFORMER "Herb Robertson / Dave Kaczorowski / Adrian Valosin"
TITLE "Party Enders"
FILE "01 - Elastic Dreams.wav" WAVE
TRACK 01 AUDIO
TITLE "Elastic Dreams"
PERFORMER "Herb Robertson / Dave Kaczorowski / Adrian Valosin"
FLAGS DCP
INDEX 01 00:00:00
TRACK 02 AUDIO
TITLE "Party Ender"
PERFORMER "Herb Robertson / Dave Kaczorowski / Adrian Valosin"
FLAGS DCP
INDEX 00 40:39:29
FILE "02 - Party Ender.wav" WAVE
INDEX 01 00:00:00
TRACK 03 AUDIO
TITLE "Outer Boroughs"
PERFORMER "Herb Robertson / Dave Kaczorowski / Adrian Valosin"
FLAGS DCP
INDEX 00 22:22:39
FILE "03 - Outer Boroughs.wav" WAVE
INDEX 01 00:00:00
По всем вопросам пишите личное сообщение пользователю M0p94ok.
03:06
193
Нет комментариев. Ваш будет первым!