Поиск

(Free Jazz) [CD] John Surman, Stu Martin, Barre Phillips (The Trio) - Conflagration - 1971 (2002 Japan Edition), FLAC (tracks+.cue), lossless

(Free Jazz) [CD] John Surman, Stu Martin, Barre Phillips (The Trio) - Conflagration - 1971 (2002 Japan Edition), FLAC (tracks+.cue), lossless
John Surman, Stu Martin, Barre Phillips (The Trio) - Conflagration
Жанр: Free Jazz
Носитель: CD
Страна-производитель диска (релиза): Япония
Год издания: 1971 (2002)
Издатель (лейбл): Dawn/Victor Entertainment
Номер по каталогу: VICP-62170
Аудиокодек: FLAC (*.flac)
Тип рипа: tracks+.cue
Битрейт аудио: lossless
Продолжительность: 48:29
Источник (релизер): ruskaval
Наличие сканов в содержимом раздачи: да
Треклист:
01. Conflagration (Phillips) - 7:42
02. Malachite (Surman) - 10:00
03. Nuts (Martin) - 6:56
04. 6's and 7's (Phillips) - 7:47
05. B (Martin) - 6:32
06. Afore the Morrow (Surman) - 9:32
Состав:
John Surman - baritone saxophone, soprano saxophone, bass clarinet
Stu Martin - drums
Barre Phillips - bass
Harold Beckett, Kenny Wheeler - trumpet, fluegelhorn
Marc Charig - cornet
Chick Corea, John Taylor - piano
Nick Evans, Malcolm Griffiths - trombone
Dave Holland - bass
John Marshall - drums
Mike Osborne - alto saxophone, clarinet
Alan Skidmore - soprano saxophone, tenor saxophone, flute
Stan Sulzmann - clarinet, flute
Recorded probably in London, late 1970.
 
Лог создания рипа
Exact Audio Copy V1.0 beta 2 from 29. April 2011
EAC extraction logfile from 14. July 2011, 14:41
John Surman,Stu Martin,Barre Phillips / Conflagration
Used drive : HL-DT-STDVDRAM_GT30N Adapter: 1 ID: 0
Read mode : Secure
Utilize accurate stream : Yes
Defeat audio cache : Yes
Make use of C2 pointers : No
Read offset correction : 103
Overread into Lead-In and Lead-Out : No
Fill up missing offset samples with silence : Yes
Delete leading and trailing silent blocks : No
Null samples used in CRC calculations : Yes
Used interface : Native Win32 interface for Win NT & 2000
Gap handling : Appended to previous track
Used output format : User Defined Encoder
Selected bitrate : 640 kBit/s
Quality : High
Add ID3 tag : No
Command line compressor : C:\Program Files\Exact Audio Copyv1.0b2\Flac\flac.exe
Additional command line options : -8 -V -T "ARTIST=%artist%" -T "TITLE=%title%" -T "ALBUM=%albumtitle%" -T "DATE=%year%" -T "TRACKNUMBER=%tracknr%" -T "TOTALTRACKS=%numtracks%" -T "GENRE=%genre%" -T "ALBUMARTIST=%albumartist%" -T "ALBUM ARTIST=%albumartist%
TOC of the extracted CD
Track | Start | Length | Start sector | End sector
---------------------------------------------------------
1 | 0:00.00 | 7:41.70 | 0 | 34644
2 | 7:41.70 | 10:00.18 | 34645 | 79662
3 | 17:42.13 | 6:56.30 | 79663 | 110892
4 | 24:38.43 | 7:47.25 | 110893 | 145942
5 | 32:25.68 | 6:32.35 | 145943 | 175377
6 | 38:58.28 | 9:32.17 | 175378 | 218294
Track 1
Filename I:\my upload\The Trio - Conflagration (1971) [FLAC] {John Surman,Stu Martin,Barre Phillips, Dawn Records, 20bitK2 Remastered, VICP-62170}\01 - Conflagration.wav
Pre-gap length 0:00:02.00
Peak level 98.8 %
Extraction speed 1.4 X
Track quality 100.0 %
Test CRC 2506EEDE
Copy CRC 2506EEDE
Track not present in AccurateRip database
Copy OK
Track 2
Filename I:\my upload\The Trio - Conflagration (1971) [FLAC] {John Surman,Stu Martin,Barre Phillips, Dawn Records, 20bitK2 Remastered, VICP-62170}\02 - Malachite.wav
Pre-gap length 0:00:00.31
Peak level 96.9 %
Extraction speed 1.6 X
Track quality 99.9 %
Test CRC DEAEF6A1
Copy CRC DEAEF6A1
Track not present in AccurateRip database
Copy OK
Track 3
Filename I:\my upload\The Trio - Conflagration (1971) [FLAC] {John Surman,Stu Martin,Barre Phillips, Dawn Records, 20bitK2 Remastered, VICP-62170}\03 - Nuts.wav
Pre-gap length 0:00:00.04
Peak level 96.5 %
Extraction speed 1.9 X
Track quality 100.0 %
Test CRC 827667EF
Copy CRC 827667EF
Track not present in AccurateRip database
Copy OK
Track 4
Filename I:\my upload\The Trio - Conflagration (1971) [FLAC] {John Surman,Stu Martin,Barre Phillips, Dawn Records, 20bitK2 Remastered, VICP-62170}\04 - 6's and 7's.wav
Pre-gap length 0:00:02.57
Peak level 91.5 %
Extraction speed 2.1 X
Track quality 100.0 %
Test CRC 5CA8117E
Copy CRC 5CA8117E
Track not present in AccurateRip database
Copy OK
Track 5
Filename I:\my upload\The Trio - Conflagration (1971) [FLAC] {John Surman,Stu Martin,Barre Phillips, Dawn Records, 20bitK2 Remastered, VICP-62170}\05 - B.wav
Pre-gap length 0:00:05.09
Peak level 90.4 %
Extraction speed 2.2 X
Track quality 100.0 %
Test CRC 97FCA766
Copy CRC 97FCA766
Track not present in AccurateRip database
Copy OK
Track 6
Filename I:\my upload\The Trio - Conflagration (1971) [FLAC] {John Surman,Stu Martin,Barre Phillips, Dawn Records, 20bitK2 Remastered, VICP-62170}\06 - Afore the Morrow.wav
Pre-gap length 0:00:01.62
Peak level 97.5 %
Extraction speed 2.5 X
Track quality 100.0 %
Test CRC 1A69C290
Copy CRC 1A69C290
Track not present in AccurateRip database
Copy OK
None of the tracks are present in the AccurateRip database
No errors occurred
End of status report
==== Log checksum 17B132F373B97FEDD788CB15C2D8664EC44780D27E850387030AA34EDB0D12D8 ====
 
Содержание индексной карты (.CUE)
REM GENRE Jazz
REM DATE 1971
REM DISCID 450B5E06
REM COMMENT "ExactAudioCopy v1.0b2"
PERFORMER "John Surman, Stu Martin, Barre Phillips"
TITLE "Conflagration"
FILE "01 - Conflagration.wav" WAVE
TRACK 01 AUDIO
TITLE "Conflagration"
PERFORMER "John Surman, Stu Martin, Barre Phillips"
INDEX 01 00:00:00
TRACK 02 AUDIO
TITLE "Malachite"
PERFORMER "John Surman, Stu Martin, Barre Phillips"
INDEX 00 07:41:39
FILE "02 - Malachite.wav" WAVE
INDEX 01 00:00:00
TRACK 03 AUDIO
TITLE "Nuts"
PERFORMER "John Surman, Stu Martin, Barre Phillips"
INDEX 00 10:00:14
FILE "03 - Nuts.wav" WAVE
INDEX 01 00:00:00
TRACK 04 AUDIO
TITLE "6's and 7's"
PERFORMER "John Surman, Stu Martin, Barre Phillips"
INDEX 00 06:53:48
FILE "04 - 6's and 7's.wav" WAVE
INDEX 01 00:00:00
TRACK 05 AUDIO
TITLE "B"
PERFORMER "John Surman, Stu Martin, Barre Phillips"
INDEX 00 07:42:16
FILE "05 - B.wav" WAVE
INDEX 01 00:00:00
TRACK 06 AUDIO
TITLE "Afore the Morrow"
PERFORMER "John Surman, Stu Martin, Barre Phillips"
INDEX 00 06:30:48
FILE "06 - Afore the Morrow.wav" WAVE
INDEX 01 00:00:00
 
Отчет CUETools
[CUETools log; Date: 06.10.2016 0:32:40; Version: 2.1.5]
[CTDB TOCID: 34bqfzJWYq96sD2W35RcQohqKiE-] found.
Track | CTDB Status
1 | (1/1) Accurately ripped
2 | (1/1) Accurately ripped
3 | (1/1) Accurately ripped
4 | (1/1) Accurately ripped
5 | (1/1) Accurately ripped
6 | (1/1) Accurately ripped
[AccurateRip ID: 000bab91-003dfacc-450b5e06] found.
Track [ CRC | V2 ] Status
01 [b35de854|e283a4d7] (0+1/1) Accurately ripped
02 [fc485ba5|a3fdc86d] (0+1/1) Accurately ripped
03 [4aa3ea9f|0aa5af92] (0+1/1) Accurately ripped
04 [30128c04|96500d96] (0+1/1) Accurately ripped
05 [975ead57|89a242e8] (0+1/1) Accurately ripped
06 [ccc0b8bc|27f7c12a] (0+1/1) Accurately ripped
Track Peak [ CRC32 ] [W/O NULL] [ LOG ]
-- 98,8 [6FEE0E22] [7C321383]
01 98,8 [2506EEDE] [CD292698] CRC32
02 96,9 [DEAEF6A1] [64C2E73A] CRC32
03 96,5 [827667EF] [29A4488B] CRC32
04 91,5 [5CA8117E] [B145FE26] CRC32
05 90,4 [97FCA766] [D4EF0E5C] CRC32
06 97,5 [1A69C290] [F645D067] CRC32
 
Об альбоме (сборнике)
John Surman, Stu Martin, Barre Phillips - Conflagration (Rare British jazz 1971 UK 6-track LP on the Dawn label, from Surman's highly regarded and influential Trio group, including the two expatriate American musicians Phillips and Martin, also starring Harold Beckett, Chick Corea, Mike Osborne, Alan Skidmore, John Taylor & more. The trio joined by a variety of other musicians. The songs are challenging in an Ornette Coleman sort of way but never inaccessible. Not a recording for the casual jazz listener - it's more for the adventurous jazz lover.
21:54
374
Нет комментариев. Ваш будет первым!