Поиск

(Free Improvisation, Contemporary Jazz) [CD] Whahay (Paul Rogers, Robin Fincker, Fabien Duscombs) - Whahay - 2014, FLAC (tracks+.cue), lossless

(Free Improvisation, Contemporary Jazz) [CD] Whahay (Paul Rogers, Robin Fincker, Fabien Duscombs) - Whahay - 2014, FLAC (tracks+.cue), lossless
Треклист:
Whahay / Whahay
Жанр: Free Improvisation, Contemporary Jazz
Носитель: CD
Страна-производитель диска (релиза): France
Год издания: 2014
Издатель (лейбл): Mr Morezon
Номер по каталогу: 009
Аудиокодек: FLAC (*.flac)
Тип рипа: tracks+.cue
Битрейт аудио: lossless
Продолжительность: 51:10
Источник (релизер): cd
Наличие сканов в содержимом раздачи: нет
Треклист:
01. Better Git In Your Soul 06:17
02. Ecclusiastics 05:09
03. Jump Monk 06:49
04. Canon 05:58
05. Pithecantropus Erectus 05:08
06. Reincarnation Of A Lovebird 08:15
07. Bird Call 02:18
08. Work Song 05:23
09. Goodbye Pork Pie Hat 05:48
 
Лог создания рипа
Exact Audio Copy V1.0 beta 3 from 29. August 2011
EAC extraction logfile from 28. September 2016, 16:26
Whahay / Whahay
Used drive : ASUS DRW-24F1ST a Adapter: 0 ID: 0
Read mode : Secure
Utilize accurate stream : Yes
Defeat audio cache : Yes
Make use of C2 pointers : No
Read offset correction : 6
Overread into Lead-In and Lead-Out : No
Fill up missing offset samples with silence : Yes
Delete leading and trailing silent blocks : No
Null samples used in CRC calculations : Yes
Used interface : Native Win32 interface for Win NT & 2000
Gap handling : Appended to previous track
Used output format : User Defined Encoder
Selected bitrate : 320 kBit/s
Quality : High
Add ID3 tag : No
Command line compressor : D:\Programs\Exact Audio Copy\Flac\flac.exe
Additional command line options : -V -8 -T "Genre=%genre%" -T "Artist=%artist%" -T "Title=%title%" -T "Album=%albumtitle%" -T "Date=%year%" -T "Tracknumber=%tracknr%" -T "Comment=%comment%" %source%
TOC of the extracted CD
Track | Start | Length | Start sector | End sector
---------------------------------------------------------
1 | 0:00.00 | 6:17.74 | 0 | 28348
2 | 6:17.74 | 5:09.72 | 28349 | 51595
3 | 11:27.71 | 6:49.04 | 51596 | 82274
4 | 18:17.00 | 5:58.72 | 82275 | 109196
5 | 24:15.72 | 5:08.03 | 109197 | 132299
6 | 29:24.00 | 8:15.15 | 132300 | 169439
7 | 37:39.15 | 2:18.65 | 169440 | 179854
8 | 39:58.05 | 5:23.58 | 179855 | 204137
9 | 45:21.63 | 5:48.57 | 204138 | 230294
Track 1
Filename D:\EAC\01 Better Git In Your Soul.wav
Pre-gap length 0:00:02.00
Peak level 99.1 %
Extraction speed 4.6 X
Track quality 100.0 %
Test CRC E006859A
Copy CRC E006859A
Track not present in AccurateRip database
Copy OK
Track 2
Filename D:\EAC\02 Ecclusiastics.wav
Peak level 96.9 %
Extraction speed 5.2 X
Track quality 100.0 %
Test CRC EE68E221
Copy CRC EE68E221
Track not present in AccurateRip database
Copy OK
Track 3
Filename D:\EAC\03 Jump Monk.wav
Peak level 98.5 %
Extraction speed 5.9 X
Track quality 100.0 %
Test CRC 042E7F83
Copy CRC 042E7F83
Track not present in AccurateRip database
Copy OK
Track 4
Filename D:\EAC\04 Canon.wav
Peak level 100.0 %
Extraction speed 6.4 X
Track quality 100.0 %
Test CRC E6155DEF
Copy CRC E6155DEF
Track not present in AccurateRip database
Copy OK
Track 5
Filename D:\EAC\05 Pithecantropus Erectus.wav
Peak level 100.0 %
Extraction speed 6.9 X
Track quality 100.0 %
Test CRC BC869791
Copy CRC BC869791
Track not present in AccurateRip database
Copy OK
Track 6
Filename D:\EAC\06 Reincarnation Of A Lovebird.wav
Peak level 97.5 %
Extraction speed 7.8 X
Track quality 100.0 %
Test CRC 720E40DF
Copy CRC 720E40DF
Track not present in AccurateRip database
Copy OK
Track 7
Filename D:\EAC\07 Bird Call.wav
Peak level 100.0 %
Extraction speed 6.7 X
Track quality 100.0 %
Test CRC FB535302
Copy CRC FB535302
Track not present in AccurateRip database
Copy OK
Track 8
Filename D:\EAC\08 Work Song.wav
Peak level 97.2 %
Extraction speed 8.0 X
Track quality 100.0 %
Test CRC F1660AEA
Copy CRC F1660AEA
Track not present in AccurateRip database
Copy OK
Track 9
Filename D:\EAC\09 Goodbye Pork Pie Hat.wav
Peak level 97.4 %
Extraction speed 8.5 X
Track quality 100.0 %
Test CRC 1455C501
Copy CRC 1455C501
Track not present in AccurateRip database
Copy OK
None of the tracks are present in the AccurateRip database
No errors occurred
End of status report
==== Log checksum EC4DC40C796A9DB5E92F69B151940A738EF4BCBB80C1F89C019E5D8C28EF16CD ====
 
Содержание индексной карты (.CUE)
REM GENRE Jazz
REM DATE 2014
REM DISCID 830BFE09
REM COMMENT "ExactAudioCopy v1.0b3"
PERFORMER "Whahay "
TITLE "Whahay "
FILE "01 Better Git In Your Soul.wav" WAVE
TRACK 01 AUDIO
TITLE "Better Git In Your Soul"
PERFORMER "Whahay "
ISRC FR9W11409661
INDEX 01 00:00:00
FILE "02 Ecclusiastics.wav" WAVE
TRACK 02 AUDIO
TITLE "Ecclusiastics"
PERFORMER "Whahay "
ISRC FR9W11409662
INDEX 01 00:00:00
FILE "03 Jump Monk.wav" WAVE
TRACK 03 AUDIO
TITLE "Jump Monk"
PERFORMER "Whahay "
ISRC FR9W11409663
INDEX 01 00:00:00
FILE "04 Canon.wav" WAVE
TRACK 04 AUDIO
TITLE "Canon"
PERFORMER "Whahay "
ISRC FR9W11409664
INDEX 01 00:00:00
FILE "05 Pithecantropus Erectus.wav" WAVE
TRACK 05 AUDIO
TITLE "Pithecantropus Erectus"
PERFORMER "Whahay "
ISRC FR9W11409665
INDEX 01 00:00:00
FILE "06 Reincarnation Of A Lovebird.wav" WAVE
TRACK 06 AUDIO
TITLE "Reincarnation Of A Lovebird"
PERFORMER "Whahay "
ISRC FR9W11409666
INDEX 01 00:00:00
FILE "07 Bird Call.wav" WAVE
TRACK 07 AUDIO
TITLE "Bird Call"
PERFORMER "Whahay "
ISRC FR9W11409667
INDEX 01 00:00:00
FILE "08 Work Song.wav" WAVE
TRACK 08 AUDIO
TITLE "Work Song"
PERFORMER "Whahay "
ISRC FR9W11409668
INDEX 01 00:00:00
FILE "09 Goodbye Pork Pie Hat.wav" WAVE
TRACK 09 AUDIO
TITLE "Goodbye Pork Pie Hat"
PERFORMER "Whahay "
ISRC FR9W11409669
INDEX 01 00:00:00
Доп. информация: All music improvised from and towards compositions by CHARLES MINGUS
Recorded mixed and mastered at studio La Buissonne in February and May 2014.
 
Об альбоме (сборнике)
Is playing with a European free jazz sensibility antithetical to the music of Charles Mingus? Absolutely. Does renowned bassist Paul Rogers try his hand at it with his new trio Whahay? Yes. Do they triumph? Without question, yes.
Rogers, a veteran of the London scene and bands of Keith Tippett, Paul Dunmall, and Elton Dean, called upon two French musicians saxophonist/clarinetist Robin Fincker and drummer Fabien Duscombs to perform this Mingus tribute. The music is built upon Mingus' themes and melodies, like a Frank Gehry post-structuralist building that utilizes a traditional foundation as a delivery system for liberation.
He saws an opening melody to "Better Git It In Your Soul" with Fincker's clarinet following. With the mood set, Rogers' bluesy pizzicato anchors Fincker's saxophone and the busied sticks of Duscombs. The platform from which the trio works, Mingus' themes, ties the sound to jazz history, but also fuels their untethered efforts. There is always solid ground under the exploratory flights of a piece like "Pithecanthropus Erectus" and "Bird Calls." The latter piece is taken at breakneck speed, as if it were a punk rock cover.
The music does no disservice to Mingus. Rogers' elaborations and abstractions are like that of an abstract painter, one with solid skills in figurative drawing. Fincker, who has a strong connection to Albert Ayler, also draws from Eric Dolphy and Jackie McLean for inspiration.
Rogers utilizes a seven string double bass to summon a cello sound (Mingus' first instrument) at times. He displays a dominant sound throughout. His one-man musical opens "Goodbye Pork Pie Hat" with an orchestrated solo of pulse, melody, and rhapsodic exuberance. Bells and melancholic clarinet enter to service the freedom. A liberation that is founded on the discipline of Charles Mingus.
 
Состав
Paul Rogers - 7 strings double bass
Robin Fincker - tenor Saxophone, clarinet
Fabien Duscombs - drums
20:54
240
Нет комментариев. Ваш будет первым!