Вы используете незарегистрированную версию компонента "Вкладки"!

Поиск

(Free Jazz) [CD] James Zitro - Zitro (1967) [Digipack] - 2008, FLAC (tracks+.cue), lossless

(Free Jazz) [CD] James Zitro - Zitro (1967) [Digipack] - 2008, FLAC (tracks+.cue), lossless
Треклист:
James Zitro / Zitro
Жанр: Free Jazz
Страна: US
Носитель: CD
Страна-производитель диска: US
Год издания: 2008
Издатель (лейбл): ESP Disk
Номер по каталогу: ESP 1052
Аудиокодек: FLAC (*.flac)
Тип рипа: tracks+.cue
Битрейт аудио: lossless
Продолжительность: 00:41:01
Источник (релизер): what.cd (frenchvanilla)
Наличие сканов в содержимом раздачи: нет
Треклист:
1. Freeken
2. Happy Pretty
3. Fourth
 
EAC log
Exact Audio Copy V1.0 beta 2 from 29. April 2011
EAC extraction logfile from 4. February 2012, 10:30
James Zitro / Zitro
Used drive : TSSTcorpDVD-ROM TS-H353B Adapter: 3 ID: 0
Read mode : Secure
Utilize accurate stream : Yes
Defeat audio cache : Yes
Make use of C2 pointers : No
Read offset correction : 6
Overread into Lead-In and Lead-Out : No
Fill up missing offset samples with silence : Yes
Delete leading and trailing silent blocks : No
Null samples used in CRC calculations : Yes
Used interface : Native Win32 interface for Win NT & 2000
Gap handling : Appended to previous track
Used output format : User Defined Encoder
Selected bitrate : 1024 kBit/s
Quality : High
Add ID3 tag : No
Command line compressor : C:\Program Files (x86)\Exact Audio Copy\Flac\flac.exe
Additional command line options : -8 -V -T "ARTIST=%artist%" -T "TITLE=%title%" -T "ALBUM=%albumtitle%" -T "DATE=%year%" -T "TRACKNUMBER=%tracknr%" -T "GENRE=%genre%" -T "PERFORMER=%albuminterpret%" -T "COMPOSER=%composer%" %haslyrics%--tag-from-file=LYRICS
TOC of the extracted CD
Track | Start | Length | Start sector | End sector
---------------------------------------------------------
1 | 0:00.00 | 22:07.03 | 0 | 99527
2 | 22:07.03 | 13:47.69 | 99528 | 161621
3 | 35:54.72 | 5:06.56 | 161622 | 184627
Track 1
Filename J:\D Music\James Zitro - 1967 - Zitro [FLAC]\01 - Freeken.wav
Pre-gap length 0:00:02.00
Peak level 69.6 %
Extraction speed 5.8 X
Track quality 100.0 %
Test CRC 5EE63F67
Copy CRC 5EE63F67
Track not present in AccurateRip database
Copy OK
Track 2
Filename J:\D Music\James Zitro - 1967 - Zitro [FLAC]\02 - Happy Pretty.wav
Peak level 70.7 %
Extraction speed 7.6 X
Track quality 100.0 %
Test CRC 07F8C92B
Copy CRC 07F8C92B
Track not present in AccurateRip database
Copy OK
Track 3
Filename J:\D Music\James Zitro - 1967 - Zitro [FLAC]\03 - Sweet.wav
Peak level 55.3 %
Extraction speed 7.0 X
Track quality 99.9 %
Test CRC CBC9B7DE
Copy CRC CBC9B7DE
Track not present in AccurateRip database
Copy OK
None of the tracks are present in the AccurateRip database
No errors occurred
End of status report
==== Log checksum 1FDDCCABA8D663B925089AEBB5C29D00063659BF592B9E6ADCE092A07C7EBD88 ====
 
cue
REM GENRE Jazz
REM DATE 1967
REM DISCID 1F099D03
REM COMMENT "ExactAudioCopy v1.0b2"
FILE "01 - Freeken.wav" WAVE
TRACK 01 AUDIO
INDEX 01 00:00:00
FILE "02 - Happy Pretty.wav" WAVE
TRACK 02 AUDIO
INDEX 01 00:00:00
FILE "03 - Sweet.wav" WAVE
TRACK 03 AUDIO
INDEX 01 00:00:00
 
Line-up
Allan Praskin: alto sax
Bert Wilson: tenor sax
Warren Gale: trumpet
Michael Cohen: piano
Bruce Cale: bass
James Zitro: drums
__
спасибо, sander996!
По всем вопросам пишите личное сообщение пользователю M0p94ok.
03:04
199
Нет комментариев. Ваш будет первым!